Tartarus 2010 DVDRiP AC3-5 1 XviD-SiC

Discussion in 'Movies' started by RMTeam, Mar 2, 2012.

  1. RMTeam

    RMTeam Active Member

    Joined:
    Feb 18, 2012
    Messages:
    4,485
    Likes Received:
    2
    Trophy Points:
    38
    Tartarus 2010 DVDRiP AC3-5 1 XviD-SiC

    [​IMG]

    Tartarus (2010)
    Genre: Adventure | Drama | Horror
    Directed By: Stefan Müller
    Cast: Moritz Thate, Martin Kroissenbrunner, Ines Gruber
    Storyline: Austria-Hungary 1813: Two soldiers returning from the Napoleonic war encounter a creeping invasion in a remote mountain village that far exceeds their imagination...

    Code:
        IMDB Rate: 5.5
        IMDB: http://www.imdb.com/title/tt1728248/
    Description:
    Austria-Hungary 1813: Two soldiers returning from the Napoleonic war encounter a creeping invasion in a remote mountain village that far exceeds their imagination - especially as the powerful enemy calls for actions that put the humanity of the two men to the test.


    General
    Complete name : Tartarus.2010.DVDRiP.AC3-5.1.XviD-SiC.avi
    Format : AVI
    Format/Info : Audio Video Interleave
    File size : 1.37 GiB
    Duration : 1h 45mn
    Overall bit rate : 1 847 Kbps

    Video
    ID : 0
    Format : MPEG-4 Visual
    Format profile : Simple@L3
    Format settings, BVOP : 2
    Format settings, QPel : No
    Format settings, GMC : No warppoints
    Format settings, Matrix : Default (H.263)
    Muxing mode : Packed bitstream
    Codec ID : XVID
    Codec ID/Hint : XviD
    Duration : 1h 45mn
    Bit rate : 1 583 Kbps
    Width : 720 pixels
    Height : 288 pixels
    Display aspect ratio : 2.500
    Frame rate : 25.000 fps
    Color space : YUV
    Chroma subsampling : 4:2:0
    Bit depth : 8 bits
    Scan type : Progressive
    Compression mode : Lossy
    Bits/(Pixel*Frame) : 0.305
    Stream size : 1.17 GiB (86%)
    Writing library : XviD 1.0.3 (UTC 2004-12-20)

    Audio
    ID : 1
    Format : AC-3
    Format/Info : Audio Coding 3
    Mode extension : CM (complete main)
    Codec ID : 2000
    Duration : 1h 45mn
    Bit rate mode : Constant
    Bit rate : 256 Kbps
    Channel(s) : 6 channels
    Channel positions : Front: L C R, Side: L R, LFE
    Sampling rate : 48.0 KHz
    Bit depth : 16 bits
    Compression mode : Lossy
    Stream size : 194 MiB (14%)
    Alignment : Aligned on interleaves
    Interleave, duration : 64 ms (1.60 video frames)
    Interleave, preload duration : 192 ms
    Title : VTS_01_1 T80 3_2ch 448Kbps DELAY 0ms_new


    DOWNLOAD
    Code:
    http://www.rarefile.net/sip4lf3k88xi/t.2010.d.a3-5.1.xs.u23182.RMTeam.part1.rar
    http://www.rarefile.net/82kczi7k3cwo/t.2010.d.a3-5.1.xs.u23182.RMTeam.part2.rar
    http://www.rarefile.net/h8og6p8il3ux/t.2010.d.a3-5.1.xs.u23182.RMTeam.part3.rar
    [​IMG]

    [​IMG]
     

Share This Page