Terra Mater: Wildes Brasilien – Geheimnisvolles Naturparadies (2014) Bluray

Discussion in 'Documentaries' started by Sheriff, Aug 12, 2014.

  1. Sheriff

    Sheriff Administrator Staff Member

    Joined:
    Feb 18, 2012
    Messages:
    42,274
    Likes Received:
    1,424
    Trophy Points:
    113
    [​IMG]
    Code:
    BDInfo Report: Disc 1
    DISC INFO:
    Disc Title:  Wildes.Brasilien.Disc1.2014.DOKU.DUAL.COMPLETE.BLURAY-TRexHD
    Disc Size:  24 033 440 702 bytes
    Protection:  AACS
    BD-Java:  No
    Extras:  50Hz Content
    BDInfo:  0.5.8
    PLAYLIST REPORT:
    Name:  00006.MPLS
    Length:  0:50:31.200 (h:m:s.ms)
    Size:  11 269 054 464 bytes
    Total Bitrate:  29,74 Mbps
    VIDEO:
    Codec  Bitrate  Description   
    -----  -------  -----------   
    MPEG-4 AVC Video  23252 kbps  1080i / 25 fps / 16:9 / High Profile 4.1
    AUDIO:
    Codec  Language  Bitrate  Description   
    -----  --------  -------  -----------   
    DTS-HD Master Audio  English  2385 kbps  5.1 / 48 kHz / 2385 kbps / 16-bit (DTS Core: 5.1 / 48 kHz / 1509 kbps / 16-bit)
    DTS-HD Master Audio  German  2264 kbps  5.1 / 48 kHz / 2264 kbps / 16-bit (DTS Core: 5.1 / 48 kHz / 1509 kbps / 16-bit)
    SUBTITLES:
    Codec  Language  Bitrate  Description   
    -----  --------  -------  -----------   
    Presentation Graphics  English  0,251 kbps   
    Presentation Graphics  Dutch  54,399 kbps   
    FILES:
    Name  Time In  Length  Size  Total Bitrate  
    ----  -------  ------  ----  -------------  
    00006.M2TS  0:00:00.000  0:50:31.200  11 269 054 464  29 742
    PLAYLIST REPORT:
    Name:  00007.MPLS
    Length:  0:50:13.400 (h:m:s.ms)
    Size:  10 672 269 312 bytes
    Total Bitrate:  28,33 Mbps
    VIDEO:
    Codec  Bitrate  Description   
    -----  -------  -----------   
    MPEG-4 AVC Video  21939 kbps  1080i / 25 fps / 16:9 / High Profile 4.1
    AUDIO:
    Codec  Language  Bitrate  Description   
    -----  --------  -------  -----------   
    DTS-HD Master Audio  English  2402 kbps  5.1 / 48 kHz / 2402 kbps / 16-bit (DTS Core: 5.1 / 48 kHz / 1509 kbps / 16-bit)
    DTS-HD Master Audio  German  2213 kbps  5.1 / 48 kHz / 2213 kbps / 16-bit (DTS Core: 5.1 / 48 kHz / 1509 kbps / 16-bit)
    SUBTITLES:
    Codec  Language  Bitrate  Description   
    -----  --------  -------  -----------   
    Presentation Graphics  English  0,241 kbps   
    Presentation Graphics  Dutch  51,095 kbps   
    FILES:
    Name  Time In  Length  Size  Total Bitrate  
    ----  -------  ------  ----  -------------  
    00007.M2TS  0:00:00.000  0:50:13.400  10 672 269 312  28 333
    Code:
    BDInfo Report: Disc 2
    DISC INFO:
    Disc Title:  Wildes.Brasilien.Disc2.2014.DOKU.DUAL.COMPLETE.BLURAY-TRexHD
    Disc Size:  33 066 513 916 bytes
    Protection:  AACS
    BD-Java:  No
    Extras:  50Hz Content
    BDInfo:  0.5.8
    PLAYLIST REPORT:
    Name:  00006.MPLS
    Length:  0:50:05.720 (h:m:s.ms)
    Size:  11 209 297 920 bytes
    Total Bitrate:  29,83 Mbps
    VIDEO:
    Codec  Bitrate  Description   
    -----  -------  -----------   
    MPEG-4 AVC Video  23651 kbps  1080i / 25 fps / 16:9 / High Profile 4.1
    AUDIO:
    Codec  Language  Bitrate  Description   
    -----  --------  -------  -----------   
    DTS-HD Master Audio  English  2207 kbps  5.1 / 48 kHz / 2207 kbps / 16-bit (DTS Core: 5.1 / 48 kHz / 1509 kbps / 16-bit)
    DTS-HD Master Audio  German  2140 kbps  5.1 / 48 kHz / 2140 kbps / 16-bit (DTS Core: 5.1 / 48 kHz / 1509 kbps / 16-bit / DN -1dB)
    SUBTITLES:
    Codec  Language  Bitrate  Description   
    -----  --------  -------  -----------   
    Presentation Graphics  English  0,271 kbps   
    Presentation Graphics  Dutch  47,949 kbps   
    FILES:
    Name  Time In  Length  Size  Total Bitrate  
    ----  -------  ------  ----  -------------  
    00006.M2TS  0:00:00.000  0:50:05.720  11 209 297 920  29 835
    PLAYLIST REPORT:
    Name:  00007.MPLS
    Length:  0:50:12.120 (h:m:s.ms)
    Size:  10 469 406 720 bytes
    Total Bitrate:  27,81 Mbps
    VIDEO:
    Codec  Bitrate  Description   
    -----  -------  -----------   
    MPEG-4 AVC Video  21760 kbps  1080i / 25 fps / 16:9 / High Profile 4.1
    AUDIO:
    Codec  Language  Bitrate  Description   
    -----  --------  -------  -----------   
    DTS-HD Master Audio  English  2147 kbps  5.1 / 48 kHz / 2147 kbps / 16-bit (DTS Core: 5.1 / 48 kHz / 1509 kbps / 16-bit)
    DTS-HD Master Audio  German  2135 kbps  5.1 / 48 kHz / 2135 kbps / 16-bit (DTS Core: 5.1 / 48 kHz / 1509 kbps / 16-bit / DN -1dB)
    SUBTITLES:
    Codec  Language  Bitrate  Description   
    -----  --------  -------  -----------   
    Presentation Graphics  English  0,258 kbps   
    Presentation Graphics  Dutch  59,059 kbps   
    FILES:
    Name  Time In  Length  Size  Total Bitrate  
    ----  -------  ------  ----  -------------  
    00007.M2TS  0:00:00.000  0:50:12.120  10 469 406 720  27 806
    PLAYLIST REPORT:
    Name:  00009.MPLS
    Length:  0:50:03.640 (h:m:s.ms)
    Size:  10 843 981 824 bytes
    Total Bitrate:  28,88 Mbps
    VIDEO:
    Codec  Bitrate  Description   
    -----  -------  -----------   
    MPEG-4 AVC Video  22645 kbps  1080i / 25 fps / 16:9 / High Profile 4.1
    AUDIO:
    Codec  Language  Bitrate  Description   
    -----  --------  -------  -----------   
    DTS-HD Master Audio  English  2221 kbps  5.1 / 48 kHz / 2221 kbps / 16-bit (DTS Core: 5.1 / 48 kHz / 1509 kbps / 16-bit)
    DTS-HD Master Audio  German  2210 kbps  5.1 / 48 kHz / 2210 kbps / 16-bit (DTS Core: 5.1 / 48 kHz / 1509 kbps / 16-bit / DN -1dB)
    SUBTITLES:
    Codec  Language  Bitrate  Description   
    -----  --------  -------  -----------   
    Presentation Graphics  English  0,257 kbps   
    Presentation Graphics  Dutch  57,908 kbps   
    FILES:
    Name  Time In  Length  Size  Total Bitrate  
    ----  -------  ------  ----  -------------  
    00009.M2TS  0:00:00.000  0:50:03.640  10 843 981 824  28 882
    Episode 1: Der zerbrechliche Wald
    [​IMG] [​IMG] [​IMG] [​IMG]
    Episode 2: Das wilde Herz
    [​IMG] [​IMG] [​IMG] [​IMG]
    Episode 3: Die Wasserwelt des Pantanal
    [​IMG] [​IMG] [​IMG] [​IMG]
    Episode 4: Küstenparadiese
    [​IMG] [​IMG] [​IMG] [​IMG]
    Episode 5: Die Fluten des Amazonas
    [​IMG] [​IMG] [​IMG] [​IMG]
    [​IMG][​IMG]
    (Buy Premium account before downloading For Very Fast download Speed
    If you Like My posts Please help me by getting Premium account from my download Links.)
    Code:
    http://www.redbunker.net/ydxc0da6jxw5/TLKQWILDESBRASILIEN.part01.rar.html
    http://www.redbunker.net/e1n7leazyvsp/TLKQWILDESBRASILIEN.part02.rar.html
    http://www.redbunker.net/skj7ep199qhn/TLKQWILDESBRASILIEN.part03.rar.html
    http://www.redbunker.net/h62kcvpkqadt/TLKQWILDESBRASILIEN.part04.rar.html
    http://www.redbunker.net/w0mtlfy3jrya/TLKQWILDESBRASILIEN.part05.rar.html
    http://www.redbunker.net/li4vsaj94zf5/TLKQWILDESBRASILIEN.part06.rar.html
    http://www.redbunker.net/8pjyfs8kfvgf/TLKQWILDESBRASILIEN.part07.rar.html
    http://www.redbunker.net/bhpaonb5xy7r/TLKQWILDESBRASILIEN.part08.rar.html
    http://www.redbunker.net/7iv5w82s69jv/TLKQWILDESBRASILIEN.part09.rar.html
    http://www.redbunker.net/9vwa0c6wk67z/TLKQWILDESBRASILIEN.part10.rar.html
    http://www.redbunker.net/loocj9sd9q3f/TLKQWILDESBRASILIEN.part11.rar.html
    http://www.redbunker.net/n6bxdzrwacux/TLKQWILDESBRASILIEN.part12.rar.html
    http://www.redbunker.net/x12rw4cst51a/TLKQWILDESBRASILIEN.part13.rar.html
    http://www.redbunker.net/mryzhardc8b6/TLKQWILDESBRASILIEN.part14.rar.html
    http://www.redbunker.net/le3c6z4w18yc/TLKQWILDESBRASILIEN.part15.rar.html
    http://www.redbunker.net/8c00hqxl1b03/TLKQWILDESBRASILIEN.part16.rar.html
    http://www.redbunker.net/yxo4gf56x9le/TLKQWILDESBRASILIEN.part17.rar.html
    http://www.redbunker.net/ps4z26da71xp/TLKQWILDESBRASILIEN.part18.rar.html
    http://www.redbunker.net/fbzxvm4urp02/TLKQWILDESBRASILIEN.part19.rar.html
    http://www.redbunker.net/i4atokbb6p3x/TLKQWILDESBRASILIEN.part20.rar.html
    http://www.redbunker.net/fjg3w9nln0xp/TLKQWILDESBRASILIEN.part21.rar.html
    http://www.redbunker.net/d5m1tpnjpj4x/TLKQWILDESBRASILIEN.part22.rar.html
    http://www.redbunker.net/o3ow1deumakk/TLKQWILDESBRASILIEN.part23.rar.html
    http://www.redbunker.net/8w7avoranzt8/TLKQWILDESBRASILIEN.part24.rar.html
    http://www.redbunker.net/mj0um6y03k66/TLKQWILDESBRASILIEN.part25.rar.html
    http://www.redbunker.net/dlrj3523ynr4/TLKQWILDESBRASILIEN.part26.rar.html
    http://www.redbunker.net/14n4mkmly9w0/TLKQWILDESBRASILIEN.part27.rar.html
    http://www.redbunker.net/orv2ss5pf68w/TLKQWILDESBRASILIEN.part28.rar.html
    http://www.redbunker.net/v0j0e45vo81e/TLKQWILDESBRASILIEN.part29.rar.html
    http://www.redbunker.net/ubq576kruh2b/TLKQWILDESBRASILIEN.part30.rar.html
    Code:
    http://files2share.ch/b3s8bweppsho/TLKQWILDESBRASILIEN.part01.rar
    http://files2share.ch/cbpaoc4h9f78/TLKQWILDESBRASILIEN.part02.rar
    http://files2share.ch/4003lfumxy0n/TLKQWILDESBRASILIEN.part03.rar
    http://files2share.ch/nfr0iqp5ngkv/TLKQWILDESBRASILIEN.part04.rar
    http://files2share.ch/owgehy8gv8kq/TLKQWILDESBRASILIEN.part05.rar
    http://files2share.ch/2xr1eps56zlu/TLKQWILDESBRASILIEN.part06.rar
    http://files2share.ch/68b7e931ftjc/TLKQWILDESBRASILIEN.part07.rar
    http://files2share.ch/oqkz2j48tm2n/TLKQWILDESBRASILIEN.part08.rar
    http://files2share.ch/vv5oshj6sqw5/TLKQWILDESBRASILIEN.part09.rar
    http://files2share.ch/rk7iawbrpeui/TLKQWILDESBRASILIEN.part10.rar
    http://files2share.ch/kd8wd0jxjts7/TLKQWILDESBRASILIEN.part11.rar
    http://files2share.ch/trjvgougyxmq/TLKQWILDESBRASILIEN.part12.rar
    http://files2share.ch/k0bavmwu8m59/TLKQWILDESBRASILIEN.part13.rar
    http://files2share.ch/zzxc0629e2ff/TLKQWILDESBRASILIEN.part14.rar
    http://files2share.ch/cynapx42lcx9/TLKQWILDESBRASILIEN.part15.rar
    http://files2share.ch/n2k3uwo1635c/TLKQWILDESBRASILIEN.part16.rar
    http://files2share.ch/vfyhr9wkoxvv/TLKQWILDESBRASILIEN.part17.rar
    http://files2share.ch/t85r17tlyqu0/TLKQWILDESBRASILIEN.part18.rar
    http://files2share.ch/f6b7wrxy96g8/TLKQWILDESBRASILIEN.part19.rar
    http://files2share.ch/bk0srw5ff0hh/TLKQWILDESBRASILIEN.part20.rar
    http://files2share.ch/yd421qk2n1dc/TLKQWILDESBRASILIEN.part21.rar
    http://files2share.ch/2h5119olhuhu/TLKQWILDESBRASILIEN.part22.rar
    http://files2share.ch/vlg5l3ea8mdf/TLKQWILDESBRASILIEN.part23.rar
    http://files2share.ch/hxff1wtgdjtm/TLKQWILDESBRASILIEN.part24.rar
    http://files2share.ch/939u3e3br5ry/TLKQWILDESBRASILIEN.part25.rar
    http://files2share.ch/6rsispkrooei/TLKQWILDESBRASILIEN.part26.rar
    http://files2share.ch/nvrj9pqi8t9h/TLKQWILDESBRASILIEN.part27.rar
    http://files2share.ch/3bd4bihtharf/TLKQWILDESBRASILIEN.part28.rar
    http://files2share.ch/bb23b99arexb/TLKQWILDESBRASILIEN.part29.rar
    http://files2share.ch/ykr17bh8cdt9/TLKQWILDESBRASILIEN.part30.rar
     
  2. qcp555

    qcp555 Redbunker Premium Account Holder

    Joined:
    Apr 5, 2013
    Messages:
    1,623
    Likes Received:
    1,206
    Trophy Points:
    113
    Thank you :):):)
     

Share This Page