NitroFlare+RedBunker The Bachelorette S08 720p HDTV x264-2HD

Discussion in 'TV Series - Boxset' started by Sheriff, Jan 5, 2016.

  1. Sheriff

    Sheriff Administrator Staff Member

    Joined:
    Feb 18, 2012
    Messages:
    42,274
    Likes Received:
    1,424
    Trophy Points:
    113
    [​IMG]

    Information:
    Code:
    IMDb:
    http://www.imdb.com/title/tt0348894/
    
    The.Bachelorette.S08.720p.HDTV.x264-2HD

    [​IMG]
    Code:
    http://nitroflare.com/view/BFDC6A3140161CE/The.Bachelorette.S08E01.720p.HDTV.x264-2HD.mkv
    http://nitroflare.com/view/0EBA6B60F306B61/The.Bachelorette.S08E02.720p.HDTV.x264-2HD.mkv
    http://nitroflare.com/view/140D6ACCC04CF8F/The.Bachelorette.S08E03.720p.HDTV.x264-2HD.mkv
    http://nitroflare.com/view/8E7A81D10B4B350/The.Bachelorette.S08E04.720p.HDTV.x264-2HD.mkv
    http://nitroflare.com/view/0909B9355820D36/The.Bachelorette.S08E05.720p.HDTV.x264-2HD.mkv
    http://nitroflare.com/view/D495A50EA9DDB3C/The.Bachelorette.S08E06.720p.HDTV.x264-2HD.mkv
    http://nitroflare.com/view/91088527A3496BC/The.Bachelorette.S08E07.720p.HDTV.x264-2HD.mkv
    http://nitroflare.com/view/46FEFC9BAA2F247/The.Bachelorette.S08E08.720p.HDTV.x264-2HD.mkv
    http://nitroflare.com/view/C49AB3BDF74F8A7/The.Bachelorette.S08E09.720p.HDTV.x264-2HD.mkv
    http://nitroflare.com/view/278A749E4AB3247/The.Bachelorette.S08E10.The.Men.Tell.All.720p.HDTV.x264-2HD.mkv
    http://nitroflare.com/view/21EE71F40C15406/The.Bachelorette.S08E11.720p.HDTV.x264-2HD.mkv
    http://nitroflare.com/view/0BC52D24935A32E/The.Bachelorette.S08E12.After.The.Final.Rose.720p.HDTV.x264-2HD.mkv
    
    [​IMG]
    Code:
    http://www.redbunker.net/31ipbqex8hw7/The.Bachelorette.S08E01.720p.HDTV.x264-2HD.mkv.html
    http://www.redbunker.net/on22wi0gloqe/The.Bachelorette.S08E02.720p.HDTV.x264-2HD.mkv.html
    http://www.redbunker.net/97vadr2gsrpe/The.Bachelorette.S08E03.720p.HDTV.x264-2HD.mkv.html
    http://www.redbunker.net/8w9u8pfsjgfl/The.Bachelorette.S08E04.720p.HDTV.x264-2HD.mkv.html
    http://www.redbunker.net/a5ggwgtrk4fq/The.Bachelorette.S08E05.720p.HDTV.x264-2HD.mkv.html
    http://www.redbunker.net/92x4dfsrgsd5/The.Bachelorette.S08E06.720p.HDTV.x264-2HD.mkv.html
    http://www.redbunker.net/7gthewhp2nua/The.Bachelorette.S08E07.720p.HDTV.x264-2HD.mkv.html
    http://www.redbunker.net/dhiibaf5k9ny/The.Bachelorette.S08E08.720p.HDTV.x264-2HD.mkv.html
    http://www.redbunker.net/gnjt3rh3gwp2/The.Bachelorette.S08E09.720p.HDTV.x264-2HD.mkv.html
    http://www.redbunker.net/3cvhuirk0t9f/The.Bachelorette.S08E10.The.Men.Tell.All.720p.HDTV.x264-2HD.mkv.html
    http://www.redbunker.net/19nb9mcj88p4/The.Bachelorette.S08E11.720p.HDTV.x264-2HD.mkv.html
    http://www.redbunker.net/dznxzpaxkoj0/The.Bachelorette.S08E12.After.The.Final.Rose.720p.HDTV.x264-2HD.mkv.html
    
    NFO:
    Code:
    The Bachelorette S08 720p HDTV x264-2HD
    
    *Complete Bachelorette 08 pack with all episodes in HD*
    
    ******************************************
    
    ******************************************
    
    Video
    ID                                       : 1
    Format                                   : AVC
    Format/Info                              : Advanced Video Codec
    Format profile                           : High@L4.1
    Format settings, CABAC                   : Yes
    Format settings, ReFrames                : 5 frames
    Codec ID                                 : V_MPEG4/ISO/AVC
    Duration                                 : 1h 22mn
    Bit rate                                 : 3 603 Kbps
    Width                                    : 1 280 pixels
    Height                                   : 720 pixels
    Display aspect ratio                     : 16:9
    Frame rate mode                          : Constant
    Frame rate                               : 29.970 fps
    Color space                              : YUV
    Chroma subsampling                       : 4:2:0
    Bit depth                                : 8 bits
    Scan type                                : Progressive
    Bits/(Pixel*Frame)                       : 0.130
    Stream size                              : 2.08 GiB (89%)
    Writing library                          : x264 core 125 r2200 999b753
    Encoding settings                        : crf=21.0
    Language                                 : English
    Default                                  : Yes
    Forced                                   : No
    Matrix coefficients                      : BT.709
    
    Audio
    ID                                       : 2
    Format                                   : AC-3
    Format/Info                              : Audio Coding 3
    Mode extension                           : CM (complete main)
    Format settings, Endianness              : Big
    Codec ID                                 : A_AC3
    Duration                                 : 1h 22mn
    Bit rate mode                            : Constant
    Bit rate                                 : 384 Kbps
    Channel(s)                               : 6 channels
    Channel positions                        : Front: L C R, Side: L R, LFE
    Sampling rate                            : 48.0 KHz
    Bit depth                                : 16 bits
    Compression mode                         : Lossy
    Stream size                              : 227 MiB (9%)
    Default                                  : Yes
    Forced                                   : No
    ******************************************
    
     

Share This Page