The Bounty Hunter TS READNFO XViD V2- IMAGiNE

Discussion in 'Archive' started by Cheriff, Mar 26, 2010.

  1. Cheriff

    Cheriff Guest

    The Bounty Hunter TS READNFO XViD V2 - IMAGiNE

    [​IMG]

    NFO:
    Code:
    Another Fine Release Brought to you from - IMAGiNE                  
                 
    The Bounty Hunter TS READNFO XViD V2- IMAGiNE
    
    
    Ripper ...........:IMAGiNE                                       IMDB Rating.......:4.8/10                            
    Video Codec.......:XVID                                          Release Date......:25/03/10
    Audio Codec.......:MP3                                           Theatre Date......:17/03/10
    Audio Bitrate.....:128                                           Runtime.......:1h 46mn
    Subtitles.........:NIL                                           Language..........:ENGLISH
    Resolution......720 x 336                                      
    IMDb URL..........:http://www.imdb.com/title/tt1038919/
    
    
    DETAILS:
    
    
    Video
    Format                           : MPEG-4 Visual
    Format profile                   : Streaming Video@L1
    Format settings, BVOP            : Yes
    Format settings, QPel            : No
    Format settings, GMC             : No warppoints
    Format settings, Matrix          : Default
    Muxing mode                      : Packed bitstream
    Codec ID                         : XVID
    Codec ID/Hint                    : XviD
    Duration                         : 1h 46mn
    Bit rate                         : 2 487 Kbps
    Width                            : 720 pixels
    Height                           : 336 pixels
    Display aspect ratio             : 2.2
    Frame rate                       : 25.000 fps
    Resolution                       : 24 bits
    Colorimetry                      : 4:2:0
    Scan type                        : Progressive
    Bits/(Pixel*Frame)               : 0.411
    Stream size                      : 1.85 GiB (95%)
    Writing library                  : XviD 50
    
    Audio
    Format                           : MPEG Audio
    Format version                   : Version 1
    Format profile                   : Layer 3
    Codec ID                         : 55
    Codec ID/Hint                    : MP3
    Duration                         : 1h 46mn
    Bit rate mode                    : Constant
    Bit rate                         : 128 Kbps
    Channel(s)                       : 2 channels
    Sampling rate                    : 44.1 KHz
    Resolution                       : 16 bits
    Video delay                      : 95ms
    Stream size                      : 97.3 MiB (5%)
    Alignment                        : Split accross interleaves
    Interleave, duration             : 40 ms (1.00 video frame)
    Interleave, preload duration     : 500 ms
    
    
    
    
    NOTES:
    
    IMAGiNE bringing you another release.....The Bounty Hunter V2
    Well what can we say, we wanted to do another version of this one after we received the source files
    for this one. Thanks ELEKRI4KA
    We have tweaked the video a little different this time as we cut it up into multiple parts to get the
    cropping right. We are sure you will like the out come.
    Screens:

    [​IMG]
    [​IMG]
    [​IMG]
    [​IMG]

    Information:
    Code:
    http://www.imdb.com/title/tt1038919/
    Sample:
    Code:
    http://rapidshare.com/files/368373861/The_Bounty_Hunter_TS_READNFO_XViD_V2_-_IMAGiNE_Sample.avi
    Download:
    Code:
    Interchangeable Links
    
    http://rapidshare.com/files/368377771/i-tbh-v2.part01.rar
    http://rapidshare.com/files/368377737/i-tbh-v2.part02.rar
    http://rapidshare.com/files/368377735/i-tbh-v2.part03.rar
    http://rapidshare.com/files/368377803/i-tbh-v2.part04.rar
    http://rapidshare.com/files/368377742/i-tbh-v2.part05.rar
    http://rapidshare.com/files/368377778/i-tbh-v2.part06.rar
    http://rapidshare.com/files/368377818/i-tbh-v2.part07.rar
    http://rapidshare.com/files/368377776/i-tbh-v2.part08.rar
    http://rapidshare.com/files/368377768/i-tbh-v2.part09.rar
    http://rapidshare.com/files/368377743/i-tbh-v2.part10.rar
    
    http://x7.to/7hbq2i/i-tbh-v2.part10.rar
    http://x7.to/0aq2pk/i-tbh-v2.part09.rar
    http://x7.to/2fb9z5/i-tbh-v2.part07.rar
    http://x7.to/66rqgp/i-tbh-v2.part08.rar
    http://x7.to/i85xgs/i-tbh-v2.part05.rar
    http://x7.to/h13bpy/i-tbh-v2.part06.rar
    http://x7.to/9expc9/i-tbh-v2.part02.rar
    http://x7.to/1v4tlj/i-tbh-v2.part04.rar
    http://x7.to/nr0mvy/i-tbh-v2.part03.rar
    http://x7.to/39vnun/i-tbh-v2.part01.rar
    
    http://netload.in/dateiowxYAjAlJn/i-tbh-v2.part08.rar.htm
    http://netload.in/dateilW3NvQofuR/i-tbh-v2.part10.rar.htm
    http://netload.in/dateimCeeFM2agT/i-tbh-v2.part07.rar.htm
    http://netload.in/dateiKC3aJPn6NS/i-tbh-v2.part06.rar.htm
    http://netload.in/dateiZRrFs065Iq/i-tbh-v2.part09.rar.htm
    http://netload.in/dateiDD6z4kXlEW/i-tbh-v2.part03.rar.htm
    http://netload.in/dateitKsszXWe8r/i-tbh-v2.part04.rar.htm
    http://netload.in/dateiwgti2rZfkh/i-tbh-v2.part01.rar.htm
    http://netload.in/dateiWvnlvuN2wc/i-tbh-v2.part05.rar.htm
    http://netload.in/dateiXX64P8HOXI/i-tbh-v2.part02.rar.htm
    


    Enjoy!
     
  2. LF73

    LF73 Guest

    thanks for the share, will please the wife
     
  3. Cheriff

    Cheriff Guest

    your welcome
     
  4. trukkerz

    trukkerz Guest

    Brill ! Thanks for the share !
     
  5. Nickcy1

    Nickcy1 Guest

    Thanks
     
  6. foq982ray

    foq982ray Guest

    thanks for the share
     
  7. houseman

    houseman Guest

    Looks Good, Thanks For The RS Links!
     
  8. dialpisse

    dialpisse Guest

    an i thank you
     
  9. zzz084

    zzz084 Guest

    thank you
     
  10. compay

    compay Guest

    woooohooooo!!!!! thanx =) =) =)
     
  11. burnik

    burnik Guest

    can you re upload part 10 rs
     

Share This Page