The Descendants 2011 720P BRRIP x264 AC3 - HOPE

Discussion in '2011 Movies' started by RMTeam, Mar 3, 2012.

  1. RMTeam

    RMTeam Active Member

    Joined:
    Feb 18, 2012
    Messages:
    4,485
    Likes Received:
    2
    Trophy Points:
    38
    The Descendants 2011 720P BRRIP x264 AC3 - HOPE

    [​IMG]

    The Descendants (2011)
    Genre: Comedy | Drama
    Directed By: Alexander Payne
    Cast: George Clooney, Shailene Woodley, Amara Miller
    MPAA Rate: R
    Storyline: A land baron tries to re-connect with his two daughters after his wife is seriously injured in a boating accident.

    Code:
        IMDB Rate: 7.6
        IMDB: http://www.imdb.com/title/tt1033575/
    Information:
    Format : Matroska
    Format version : Version 2
    File size : 2.00 GiB
    Duration : 1h 55mn
    Overall bit rate : 2 486 Kbps
    Encoded date : UTC 2012-03-02 20:11:43
    Writing application : mkvmerge v5.3.0 ('I could have danced') built on Feb 9 2012 10:38:07
    Writing library : libebml v1.2.3 + libmatroska v1.3.0

    Video
    ID : 1
    Format : AVC
    Format/Info : Advanced Video Codec
    Format profile : High@L5.1
    Format settings, CABAC : Yes
    Format settings, ReFrames : 6 frames
    Codec ID : V_MPEG4/ISO/AVC
    Duration : 1h 55mn
    Bit rate : 2 037 Kbps
    Width : 1 280 pixels
    Height : 536 pixels
    Display aspect ratio : 2.40:1
    Frame rate : 23.976 fps
    Color space : YUV
    Chroma subsampling : 4:2:0
    Bit depth : 8 bits
    Scan type : Progressive
    Bits/(Pixel*Frame) : 0.124
    Stream size : 1.60 GiB (80%)
    Writing library : x264 core 120 r2164 da19765

    Audio
    ID : 2
    Format : AC-3
    Format/Info : Audio Coding 3
    Mode extension : CM (complete main)
    Codec ID : A_AC3
    Duration : 1h 55mn
    Bit rate mode : Constant
    Bit rate : 448 Kbps
    Channel(s) : 6 channels
    Channel positions : Front: L C R, Side: L R, LFE
    Sampling rate : 48.0 KHz
    Bit depth : 16 bits
    Compression mode : Lossy
    Stream size : 369 MiB (18%)



    DOWNLOAD
    Code:
    http://www.rarefile.net/puodfbmti6zg/t.d.2011.720p.b.x264.a3.h.u23299.RMTeam.part1.rar
    http://www.rarefile.net/rfb4niz8mszt/t.d.2011.720p.b.x264.a3.h.u23299.RMTeam.part2.rar
    http://www.rarefile.net/cxlb4fx8l33b/t.d.2011.720p.b.x264.a3.h.u23299.RMTeam.part3.rar
    http://www.rarefile.net/wprsjrcunj02/t.d.2011.720p.b.x264.a3.h.u23299.RMTeam.part4.rar
    http://www.rarefile.net/i6msxxqdsaiu/t.d.2011.720p.b.x264.a3.h.u23299.RMTeam.part5.rar
    [​IMG]

    [​IMG]

    [​IMG]
     

Share This Page