The Descendants 2011 BDRip XVID AC3 HQ Hive-CM8

Discussion in 'Recycle Bin' started by RMTeam, Mar 7, 2012.

  1. RMTeam

    RMTeam Active Member

    Joined:
    Feb 18, 2012
    Messages:
    4,485
    Likes Received:
    2
    Trophy Points:
    38
    The Descendants 2011 BDRip XVID AC3 HQ Hive-CM8

    [​IMG]

    The Descendants (2011)
    Genre: Comedy | Drama
    Directed By: Alexander Payne
    Cast: George Clooney, Shailene Woodley, Amara Miller
    MPAA Rate: R
    Storyline: A land baron tries to re-connect with his two daughters after his wife is seriously injured in a boating accident.


    Code:
        IMDB Rate: 7.6
        IMDB: http://www.imdb.com/title/tt1033575/
    General
    Complete name : The.Descendants.2011.BDRip.XVID.AC3.HQ.Hive-CM8.avi
    Format : AVI
    Format/Info : Audio Video Interleave
    File size : 1.68 GiB
    Duration : 1h 55mn
    Overall bit rate : 2 095 Kbps
    Writing application : Nandub v1.0rc2
    Writing library : Nandub build 1853/release

    Video
    ID : 0
    Format : MPEG-4 Visual
    Format profile : Advanced Simple@L5
    Format settings, BVOP : 1
    Format settings, QPel : Yes
    Format settings, GMC : No warppoints
    Format settings, Matrix : Default (H.263)
    Muxing mode : Packed bitstream
    Codec ID : XVID
    Codec ID/Hint : XviD
    Duration : 1h 55mn
    Bit rate : 1 702 Kbps
    Width : 720 pixels
    Height : 304 pixels
    Display aspect ratio : 2.40:1
    Frame rate : 23.976 fps
    Color space : YUV
    Chroma subsampling : 4:2:0
    Bit depth : 8 bits
    Scan type : Progressive
    Compression mode : Lossy
    Bits/(Pixel*Frame) : 0.324
    Stream size : 1.37 GiB (81%)
    Writing library : XviD 1.2.1 (UTC 2008-12-04)

    Audio
    ID : 1
    Format : AC-3
    Format/Info : Audio Coding 3
    Mode extension : CM (complete main)
    Codec ID : 2000
    Duration : 1h 55mn
    Bit rate mode : Constant
    Bit rate : 384 Kbps
    Channel(s) : 6 channels
    Channel positions : Front: L C R, Side: L R, LFE
    Sampling rate : 48.0 KHz
    Bit depth : 16 bits
    Compression mode : Lossy
    Stream size : 316 MiB (18%)
    Alignment : Split accross interleaves
    Interleave, duration : 42 ms (1.00 video frame)
    Interleave, preload duration : 500 ms


    DOWNLOAD
    Code:
    http://www.rarefile.net/ry4qgcllz17z/td.2011.bx.a3.hh-c8.u23446.RMTeam.part1.rar
    http://www.rarefile.net/5gtd8w98lfq8/td.2011.bx.a3.hh-c8.u23446.RMTeam.part2.rar
    http://www.rarefile.net/ayo5dm2v3biy/td.2011.bx.a3.hh-c8.u23446.RMTeam.part3.rar
    http://www.rarefile.net/h66zxxgvh5se/td.2011.bx.a3.hh-c8.u23446.RMTeam.part4.rar
    [​IMG]

    [​IMG]
     

Share This Page