The Descendants 2011 BRRip Ac3 Xvid ANALOG

Discussion in '2011 Movies' started by RMTeam, Mar 3, 2012.

  1. RMTeam

    RMTeam Active Member

    Joined:
    Feb 18, 2012
    Messages:
    4,485
    Likes Received:
    2
    Trophy Points:
    38
    The Descendants 2011 BRRip Ac3 Xvid ANALOG

    [​IMG]

    The Descendants (2011)
    Genre: Comedy | Drama
    Directed By: Alexander Payne
    Cast: George Clooney, Shailene Woodley, Amara Miller
    MPAA Rate: R
    Storyline: A land baron tries to re-connect with his two daughters after his wife is seriously injured in a boating accident.


    Code:
        IMDB Rate: 7.6
        IMDB: http://www.imdb.com/title/tt1033575/
    Complete name : The.Descendants.2011.BRRip.Ac3.Xvid.ANALOG\T.D.2011.BRR.ANALOG.avi
    Format : AVI
    Format/Info : Audio Video Interleave
    File size : 1.62 GiB
    Duration : 1h 55mn
    Overall bit rate : 2 021 Kbps
    Movie name : T.D.2011.BRR.ANALOG
    Writing application : VirtualDub build 32842/release
    Copyright : ANALOG

    Video
    ID : 0
    Format : MPEG-4 Visual
    Format profile : Advanced Simple@L5
    Format settings, BVOP : 1
    Format settings, QPel : No
    Format settings, GMC : No warppoints
    Format settings, Matrix : Default (H.263)
    Muxing mode : Packed bitstream
    Codec ID : XVID
    Codec ID/Hint : XviD
    Duration : 1h 55mn
    Bit rate : 1 628 Kbps
    Width : 720 pixels
    Height : 304 pixels
    Display aspect ratio : 2.35:1
    Frame rate : 23.976 fps
    Color space : YUV
    Chroma subsampling : 4:2:0
    Bit depth : 8 bits
    Scan type : Progressive
    Compression mode : Lossy
    Bits/(Pixel*Frame) : 0.310
    Stream size : 1.31 GiB (81%)
    Writing library : XviD 64

    Audio
    ID : 1
    Format : AC-3
    Format/Info : Audio Coding 3
    Mode extension : CM (complete main)
    Codec ID : 2000
    Duration : 1h 55mn
    Bit rate mode : Constant
    Bit rate : 384 Kbps
    Channel(s) : 6 channels
    Channel positions : Front: L C R, Side: L R, LFE
    Sampling rate : 48.0 KHz
    Bit depth : 16 bits
    Compression mode : Lossy
    Stream size : 316 MiB (19%)
    Alignment : Aligned on interleaves
    Interleave, duration : 42 ms (1.00 video frame)
    Interleave, preload duration : 512 ms
    Language : English



    DOWNLOAD
    Code:
    http://www.rarefile.net/ijw1rtts3i00/td.2011.ba.u23371.RMTeam.part1.rar
    http://www.rarefile.net/b8r5wmy0dfh7/td.2011.ba.u23371.RMTeam.part2.rar
    http://www.rarefile.net/rpjq0vi0777z/td.2011.ba.u23371.RMTeam.part3.rar
    http://www.rarefile.net/m5kchsv50yiu/td.2011.ba.u23371.RMTeam.part4.rar
    [​IMG]

    [​IMG]

    [​IMG]
     

Share This Page