The Expendables 2010 TS XViD-IMAGiNE

Discussion in 'Archive' started by Cheriff, Aug 17, 2010.

  1. Cheriff

    Cheriff Guest

    The Expendables 2010 TS XViD-IMAGiNE

    [​IMG]

    NFO:
    Code:
    The Expendables 2010 TS XViD-IMAGiNE
    
    Ripper ...........: IMAGiNE                                         IMDB Rating.......:7.9/10                            
    Video Codec.......: XVID                                          Release Date......:16/08/10
    Audio Codec.......:MP3                                           Theatre Date......:13/08/10
    Audio Bitrate.....:128                                               Runtime.......:1h 34mn
    Subtitles.........:ENG WHEN NEEDED                 Language..........:ENGLISH
    Resolution...... 624x 256                                        IMDb URL..........:http://www.imdb.com/title/tt1320253/
    
    
    DETAILS:
    
    Video
    ID                               : 0
    Format                           : MPEG-4 Visual
    Format profile                   : Advanced Simple@L5
    Format settings, BVOP            : Yes
    Format settings, QPel            : No
    Format settings, GMC             : No warppoints
    Format settings, Matrix          : Default (MPEG)
    Muxing mode                      : Packed bitstream
    Codec ID                         : XVID
    Codec ID/Hint                    : XviD
    Duration                         : 1h 34mn
    Bit rate                         : 1 060 Kbps
    Width                            : 624 pixels
    Height                           : 256 pixels
    Display aspect ratio             : 2.438
    Frame rate                       : 25.000 fps
    Resolution                       : 24 bits
    Colorimetry                      : 4:2:0
    Scan type                        : Progressive
    Bits/(Pixel*Frame)               : 0.265
    Stream size                      : 716 MiB (89%)
    Writing library                  : XviD 1.2.1 (UTC 2008-12-04)
    
    Audio
    ID                               : 1
    Format                           : MPEG Audio
    Format version                   : Version 1
    Format profile                   : Layer 3
    Codec ID                         : 55
    Codec ID/Hint                    : MP3
    Duration                         : 1h 34mn
    Bit rate mode                    : Constant
    Bit rate                         : 128 Kbps
    Channel(s)                       : 2 channels
    Sampling rate                    : 44.1 KHz
    Resolution                       : 16 bits
    Stream size                      : 86.5 MiB (11%)
    Alignment                        : Split accross interleaves
    Interleave, duration             : 40 ms (1.00 video frame)
    Interleave, preload duration     : 500 ms
    
    
    
    SOURCES:
    
    The Expendables russian video source ............ thanks
    The Expendables.mp3............OWN
    The Expendables.srt file ............CLASSiFiED and OWN ,thanks
    
    NOTES:
    
    IMAGiNE bringing you another release..... The Expendables
    
    Right where to start.....well first thing we did was make our own .srt file and hardcoded them .
    The subtitles are mainly made up of  the subs classified did....but they missed a few so we translated them ourselfs.
    For the subtitles we opted not to blur the russian text but go over it in yellow english subs.
    The video .....this was a small file with low res and was filmed at a bad angle.....also slightly cropped.
    Well we fixed the angles and then filtered the video changing the contrast,brightness,rgb colours,hue,sharpness and also
    reduced the glares,which in turn makes it a little dull.
    The audio was nice but very powerful and lots of bass.....so we filtered the audio and lowered the levels...still some distortion on very
    loud scenes but overall very nice line indeed
    
    Now just to let users know...the relizlab video seems to be upscaled along with alot of other videos of this popping up....Just incase you wonder
    why we have opted for a low res.Well even we have upscaled this,but not too much other wise it looks worse.
    Heres some screens to show you the difference.....
    Screens:

    [​IMG]
    [​IMG]
    [​IMG]

    Information:
    Code:
    http://www.imdb.com/title/tt1320253/
    Download:

    Please Say "THANKS"

    809 MB | 400 Mb Parts | Single Extraction | Interchangeable Links | No Password | My Upload

    Code:
    Hotfile:
    http://hotfile.com/dl/62899343/7ace754/T.E.TS-iMAGiNE.part1.rar.html
    http://hotfile.com/dl/62899346/cae1bfd/T.E.TS-iMAGiNE.part2.rar.html
    http://hotfile.com/dl/62899345/a976d7a/T.E.TS-iMAGiNE.part3.rar.html
    
    Fileserve:
    http://www.fileserve.com/file/xw2QT9m/T.E.TS-iMAGiNE.part1.rar
    http://www.fileserve.com/file/S2umQbm/T.E.TS-iMAGiNE.part2.rar
    http://www.fileserve.com/file/mDPvZJP/T.E.TS-iMAGiNE.part3.rar

    Enjoy!
     
  2. Archer

    Archer Guest

    Thanks for the share!
     
  3. atm50

    atm50 New Member

    Joined:
    Sep 19, 2013
    Messages:
    0
    Likes Received:
    0
    Trophy Points:
    0
    great stuff - cheers mate
     
  4. Cheriff

    Cheriff Guest

    new links added
     
  5. Thanks for the share!
     
  6. Nickcy1

    Nickcy1 Guest

    Thanks
     
  7. Cheriff

    Cheriff Guest

    your welcome
     
  8. pallavino

    pallavino New Member

    Joined:
    Mar 30, 2014
    Messages:
    0
    Likes Received:
    0
    Trophy Points:
    0
    cheers
     
  9. exyss

    exyss Guest

    thanks for the share!
     
  10. dialpisse

    dialpisse Guest

    an i thank you
     
  11. Cheriff

    Cheriff Guest

    fresh links added
     

Share This Page