The Girl in the Park [2007] DVDRIP

Discussion in 'BluRay - 720p to 1080p & DvdR' started by BetterRhyme, Mar 24, 2012.

  1. BetterRhyme

    BetterRhyme Guest

    [​IMG]
    The Girl in the Park [2007] DVDRIP XVID


    Country:
    USA | Language: English | Release Date: 5 December 2008

    Genres: Drama
    Format: AVI | Format/Info: Audio Video Interleave | File size: 700 MiB | Duration: 1h 45mn | Overall bit rate: 926 Kbps

    Enduringly traumatized by the disappearance of her 3-year-old daughter 15 years ago, Julia Sandburg has cut herself off from anyone once near and dear to her, including her husband Doug and her son Chris, who tried for years to penetrate her wall of isolation and despair, without success. But when Julia meets Louise, a troubled young woman with a checkered past, all Julia's old psychic wounds painfully resurface, as does her illogical and increasingly irrational hope that Louise may be the daughter she lost so long ago.

    Video
    ID : 0
    Format : MPEG-4 Visual
    Format profile : Advanced Simple@L5
    Format settings, BVOP : 2
    Format settings, QPel : No
    Format settings, GMC : No warppoints
    Format settings, Matrix : Default (H.263)
    Muxing mode : Packed bitstream
    Codec ID : XVID
    Codec ID/Hint : XviD
    Duration : 1h 45mn
    Bit rate : 783 Kbps
    Width : 608 pixels
    Height : 336 pixels
    Display aspect ratio : 16:9
    Frame rate : 25.000 fps
    Color space : YUV
    Chroma subsampling : 4:2:0
    Bit depth : 8 bits
    Scan type : Progressive
    Compression mode : Lossy
    Bits/(Pixel*Frame) : 0.153
    Stream size : 592 MiB (85%)
    Writing library : XviD 1.2.0SMP (UTC 2006-01-08)

    Audio
    ID : 1
    Format : MPEG Audio
    Format version : Version 1
    Format profile : Layer 3
    Mode : Joint stereo
    Codec ID : 55
    Codec ID/Hint : MP3
    Duration : 1h 45mn
    Bit rate mode : Variable
    Bit rate : 128 Kbps
    Channel(s) : 2 channels
    Sampling rate : 48.0 KHz
    Compression mode : Lossy
    Delay relative to video : 8ms
    Stream size : 98.1 MiB (14%)
    Alignment : Aligned on interleaves
    Interleave, duration : 24 ms (0.60 video frame)
    Interleave, preload duration : 538 ms

    [​IMG]
    [​IMG]
    [​IMG]

    [​IMG]

    Code:
    http://shareflare.net/download/18115.1819a8f4da5595db34135178eaa4/The.Girl.in.the.Park.2007.DVDRIP.XVID.EngDUQA.part1.rar.html
    http://shareflare.net/download/16063.117ac8309c54265480b2e4823d20/The.Girl.in.the.Park.2007.DVDRIP.XVID.EngDUQA.part2.rar.html
    http://shareflare.net/download/36136.3a94ea0fc7e7a78bf91f8d1c06cd/The.Girl.in.the.Park.2007.DVDRIP.XVID.EngDUQA.part3.rar.html
     

Share This Page