The Hunter (2011) BRRip XviD BBnRG

Discussion in '2011 Movies' started by RMTeam, Mar 3, 2012.

  1. RMTeam

    RMTeam Active Member

    Joined:
    Feb 18, 2012
    Messages:
    4,485
    Likes Received:
    2
    Trophy Points:
    38
    The Hunter (2011) BRRip XviD BBnRG

    [​IMG]

    The Hunter (2011)
    Genre: Adventure | Drama
    Directed By: Daniel Nettheim
    Cast: Sam Neill, Willem Dafoe, Frances O'Connor
    MPAA Rate: R
    Storyline: Martin, a mercenary, is sent from Europe by a mysterious biotech company to the Tasmanian wilderness on a hunt for the last Tasmanian tiger.


    Code:
        IMDB Rate: 6.7
        IMDB: http://www.imdb.com/title/tt1703148/

    Quote:General Information
    Complete name : The Hunter (2011) BRRip XviD BBnRG.avi
    Format : AVI
    Format/Info : Audio Video Interleave
    File size : 1.41 GiB
    Duration : 1h 44mn
    Overall bit rate : 1 941 Kbps

    Video
    ID : 0
    Format : MPEG-4 Visual
    Format profile : Advanced Simple@L5
    Format settings, BVOP : 2
    Format settings, QPel : Yes
    Format settings, GMC : No warppoints
    Format settings, Matrix : Default (H.263)
    Codec ID : XVID
    Codec ID/Hint : XviD
    Duration : 1h 44mn
    Bit rate : 1 549 Kbps
    Width : 720 pixels
    Height : 304 pixels
    Display aspect ratio : 2.35:1
    Frame rate : 24.000 fps
    Color space : YUV
    Chroma subsampling : 4:2:0
    Bit depth : 8 bits
    Scan type : Progressive
    Compression mode : Lossy
    Bits/(Pixel*Frame) : 0.295
    Stream size : 1.13 GiB (80%)
    Writing library : XviD 1.2.1 (UTC 2008-12-04)

    Audio
    ID : 1
    Format : AC-3
    Format/Info : Audio Coding 3
    Mode extension : CM (complete main)
    Codec ID : 2000
    Duration : 1h 44mn
    Bit rate mode : Constant
    Bit rate : 384 Kbps
    Channel(s) : 6 channels
    Channel positions : Front: L C R, Side: L R, LFE
    Sampling rate : 48.0 KHz
    Bit depth : 16 bits
    Compression mode : Lossy
    Stream size : 286 MiB (20%)
    Alignment : Aligned on interleaves
    Interleave, duration : 64 ms (1.54 video frames)
    Interleave, preload duration : 192 ms
    Title : The Hunter (2011) BBnRG



    DOWNLOAD
    Code:
    http://www.rarefile.net/p989uucfricc/t.h.2011.b.x.b.u23275.RMTeam.part1.rar
    http://www.rarefile.net/hqb6mdmylxik/t.h.2011.b.x.b.u23275.RMTeam.part2.rar
    http://www.rarefile.net/yinbrrag4udy/t.h.2011.b.x.b.u23275.RMTeam.part3.rar
    [​IMG]

    [​IMG]

    [​IMG]
     

Share This Page