NitroFlare The Last Kingdom (2015) S01 Season 1 1080p BluRay x264-SHORTBREHD

Discussion in 'TV Series - Boxset' started by MaCkeNzie, Jan 6, 2016.

  1. MaCkeNzie

    MaCkeNzie Member

    Joined:
    Sep 4, 2014
    Messages:
    110
    Likes Received:
    0
    Trophy Points:
    16
    Gender:
    Male
    Location:
    İzmir
    [​IMG]

    TechInfo:
    Code:
    General
    Complete name  : the.last.kingdom.s01e02.1080p.bluray.x264-shortbrehd.mkv
    Format  : Matroska
    Format version  : Version 4 / Version 2
    File size  : 4.37 GiB
    Duration  : 58mn 42s
    Overall bit rate  : 10.7 Mbps
    Encoded date  : UTC 2010-02-22 21:41:29
    Writing application  : no_variable_data
    Writing library  : no_variable_data
    
    Video
    ID  : 1
    Format  : AVC
    Format/Info  : Advanced Video Codec
    Format profile  : High@L4.1
    Format settings, CABAC  : Yes
    Format settings, ReFrames  : 4 frames
    Codec ID  : V_MPEG4/ISO/AVC
    Duration  : 58mn 42s
    Bit rate  : 9 149 Kbps
    Width  : 1 920 pixels
    Height  : 1 080 pixels
    Display aspect ratio  : 16:9
    Frame rate mode  : Constant
    Frame rate  : 25.000 fps
    Color space  : YUV
    Chroma subsampling  : 4:2:0
    Bit depth  : 8 bits
    Scan type  : Progressive
    Bits/(Pixel*Frame)  : 0.176
    Stream size  : 3.67 GiB (84%)
    Writing library  : x264 core 148 r2638 7599210
    Encoding settings  : cabac=1 / ref=4 / deblock=1:-2:-2 / analyse=0x3:0x113 / me=umh / subme=8 / psy=1 / psy_rd=1.00:0.00 / mixed_ref=1 / me_range=16 / chroma_me=1 / trellis=1 / 8x8dct=1 / cqm=0 / deadzone=21,11 / fast_pskip=1 / chroma_qp_offset=-2 / threads=6 / lookahead_threads=1 / sliced_threads=0 / nr=0 / decimate=1 / interlaced=0 / bluray_compat=0 / constrained_intra=0 / bframes=3 / b_pyramid=2 / b_adapt=2 / b_bias=0 / direct=3 / weightb=1 / open_gop=0 / weightp=2 / keyint=250 / keyint_min=25 / scenecut=40 / intra_refresh=0 / rc_lookahead=50 / rc=2pass / mbtree=1 / bitrate=9149 / ratetol=1.0 / qcomp=0.60 / qpmin=0 / qpmax=69 / qpstep=4 / cplxblur=20.0 / qblur=0.5 / ip_ratio=1.40 / aq=1:1.00
    Language  : English
    Default  : Yes
    Forced  : No
    DURATION  : 00:58:42.000000000
    NUMBER_OF_FRAMES  : 88050
    NUMBER_OF_BYTES  : 4027913569
    _STATISTICS_WRITING_APP  : no_variable_data
    _STATISTICS_WRITING_DATE_UTC  : 1970-01-01 00:00:00
    _STATISTICS_TAGS  : BPS DURATION NUMBER_OF_FRAMES NUMBER_OF_BYTES
    
    Audio
    ID  : 2
    Format  : DTS
    Format/Info  : Digital Theater Systems
    Mode  : 16
    Format settings, Endianness  : Big
    Codec ID  : A_DTS
    Duration  : 58mn 42s
    Bit rate mode  : Constant
    Bit rate  : 1 509 Kbps
    Channel(s)  : 6 channels
    Channel positions  : Front: L C R, Side: L R, LFE
    Sampling rate  : 48.0 KHz
    Bit depth  : 24 bits
    Compression mode  : Lossy
    Stream size  : 634 MiB (14%)
    Language  : English
    Default  : Yes
    Forced  : No
    DURATION  : 00:58:42.048000000
    NUMBER_OF_FRAMES  : 330192
    NUMBER_OF_BYTES  : 664346304
    _STATISTICS_WRITING_APP  : no_variable_data
    _STATISTICS_WRITING_DATE_UTC  : 1970-01-01 00:00:00
    _STATISTICS_TAGS  : BPS DURATION NUMBER_OF_FRAMES NUMBER_OF_BYTES
    
    Text #1
    ID  : 3
    Format  : UTF-8
    Codec ID  : S_TEXT/UTF8
    Codec ID/Info  : UTF-8 Plain Text
    Language  : English
    Default  : No
    Forced  : No
    DURATION  : 00:58:01.839000000
    NUMBER_OF_FRAMES  : 799
    NUMBER_OF_BYTES  : 27925
    _STATISTICS_WRITING_APP  : no_variable_data
    _STATISTICS_WRITING_DATE_UTC  : 1970-01-01 00:00:00
    _STATISTICS_TAGS  : BPS DURATION NUMBER_OF_FRAMES NUMBER_OF_BYTES
    
    Text #2
    ID  : 4
    Format  : UTF-8
    Codec ID  : S_TEXT/UTF8
    Codec ID/Info  : UTF-8 Plain Text
    Title  : SDH
    Language  : English
    Default  : No
    Forced  : No
    DURATION  : 00:58:03.999000000
    NUMBER_OF_FRAMES  : 860
    NUMBER_OF_BYTES  : 29749
    _STATISTICS_WRITING_APP  : no_variable_data
    _STATISTICS_WRITING_DATE_UTC  : 1970-01-01 00:00:00
    _STATISTICS_TAGS  : BPS DURATION NUMBER_OF_FRAMES NUMBER_OF_BYTES
    
    Menu
    00:00:00.000  : en:00:00:00.000
    00:01:47.160  : en:00:01:47.160
    00:15:05.000  : en:00:15:05.000
    00:25:30.120  : en:00:25:30.120
    00:35:14.400  : en:00:35:14.400
    00:45:29.880  : en:00:45:29.880
    00:58:08.080  : en:00:58:08.080
    Download
    Code:
    http://www.nitroflare.com/view/87FE6E1EC6EF12C/the.last.kingdom.s01e01.1080p.bluray.x264-shortbrehd.mkv
    http://www.nitroflare.com/view/62A1367A90BD5C0/the.last.kingdom.s01e02.1080p.bluray.x264-shortbrehd.mkv
    http://www.nitroflare.com/view/65A1171B6C15E8E/the.last.kingdom.s01e03.1080p.bluray.x264-shortbrehd.mkv
    http://www.nitroflare.com/view/EE004227BA2DA8D/the.last.kingdom.s01e04.1080p.bluray.x264-shortbrehd.mkv
    http://www.nitroflare.com/view/A9A3742EFD1D75A/the.last.kingdom.s01e05.1080p.bluray.x264-shortbrehd.mkv
    http://www.nitroflare.com/view/75CDC8E8D0F3261/the.last.kingdom.s01e06.1080p.bluray.x264-shortbrehd.mkv
    http://www.nitroflare.com/view/C68509D0F2B4F3C/the.last.kingdom.s01e07.1080p.bluray.x264-shortbrehd.mkv
    http://www.nitroflare.com/view/2BF37EBDAD2CF94/the.last.kingdom.s01e08.1080p.bluray.x264-shortbrehd.mkv
     

Share This Page