NitroFlare+RedBunker The Man In The High Castle (2015) S01 WEBRip XviD-FUM

Discussion in 'TV Series - Boxset' started by Sheriff, Nov 24, 2015.

  1. Sheriff

    Sheriff Administrator Staff Member

    Joined:
    Feb 18, 2012
    Messages:
    42,274
    Likes Received:
    1,424
    Trophy Points:
    113
    [​IMG]

    The Man in the High Castle: Season 1 (2015)
    An alternate version of life in the U.S. in the 1960s -- if Nazi Germany and Japan had won WWII.

    Information:
    Code:
    TVRage:
    http://tvrage.com/man-in-the-high-castle
    
    IMDb:
    http://www.imdb.com/title/tt1740299/
    
    The.Man.in.the.High.Castle.S01.720p.WEBRip.x264-FXviD

    [​IMG]
    Code:
    Download from NITROFLARE
    http://nitroflare.com/view/A2638D14E194164/The.Man.In.The.High.Castle.S01E01.WEBRip.XviD-FUM.avi
    http://nitroflare.com/view/680EBC1B1911B93/The.Man.In.The.High.Castle.S01E02.WEBRip.XviD-FUM.avi
    http://nitroflare.com/view/A1032BD03C09F3B/The.Man.In.The.High.Castle.S01E03.WEBRip.XviD-FUM.avi
    http://nitroflare.com/view/56C78DA38537C28/The.Man.In.The.High.Castle.S01E04.WEBRip.XviD-FUM.avi
    http://nitroflare.com/view/55C044A87D04DC1/The.Man.In.The.High.Castle.S01E05.WEBRip.XviD-FUM.avi
    http://nitroflare.com/view/0C94F9C22695BFC/The.Man.In.The.High.Castle.S01E06.WEBRip.XviD-FUM.avi
    http://nitroflare.com/view/956A14A10FFCCA1/The.Man.In.The.High.Castle.S01E07.WEBRip.XviD-FUM.avi
    http://nitroflare.com/view/686A3E8D4FFFCB1/The.Man.In.The.High.Castle.S01E08.WEBRip.XviD-FUM.avi
    http://nitroflare.com/view/FEC819044928584/The.Man.In.The.High.Castle.S01E09.WEBRip.XviD-FUM.avi
    http://nitroflare.com/view/28203401F330E91/The.Man.In.The.High.Castle.S01E10.WEBRip.XviD-FUM.avi
    
    [​IMG]
    Code:
    Download from REDBUNKER
    http://www.redbunker.net/z7ebnvo8tn9a/The.Man.In.The.High.Castle.S01E01.WEBRip.XviD-FUM.avi.html
    http://www.redbunker.net/841mjf9vhsuj/The.Man.In.The.High.Castle.S01E02.WEBRip.XviD-FUM.avi.html
    http://www.redbunker.net/vyxrswij55ss/The.Man.In.The.High.Castle.S01E03.WEBRip.XviD-FUM.avi.html
    http://www.redbunker.net/px4sxkkqoach/The.Man.In.The.High.Castle.S01E04.WEBRip.XviD-FUM.avi.html
    http://www.redbunker.net/7h3j5rqoxuca/The.Man.In.The.High.Castle.S01E05.WEBRip.XviD-FUM.avi.html
    http://www.redbunker.net/22fllhi83r86/The.Man.In.The.High.Castle.S01E06.WEBRip.XviD-FUM.avi.html
    http://www.redbunker.net/8y1584ethx2x/The.Man.In.The.High.Castle.S01E07.WEBRip.XviD-FUM.avi.html
    http://www.redbunker.net/gap8dda2seip/The.Man.In.The.High.Castle.S01E08.WEBRip.XviD-FUM.avi.html
    http://www.redbunker.net/mjrxap14akr0/The.Man.In.The.High.Castle.S01E09.WEBRip.XviD-FUM.avi.html
    http://www.redbunker.net/ebh7lcwjtbk4/The.Man.In.The.High.Castle.S01E10.WEBRip.XviD-FUM.avi.html
    
    NFO:
    Code:
    Format                                   : AVI
    Format/Info                              : Audio Video Interleave
    File size                                : 450 MiB
    Duration                                 : 59mn 49s
    Overall bit rate                         : 1 052 Kbps
    Writing library                          : VirtualDub build 35491/release
    
    Video
    ID                                       : 0
    Format                                   : MPEG-4 Visual
    Format profile                           : Advanced Simple@L5
    Format settings, BVOP                    : 2
    Format settings, QPel                    : No
    Format settings, GMC                     : No warppoints
    Format settings, Matrix                  : Default (H.263)
    Muxing mode                              : Packed bitstream
    Codec ID                                 : XVID
    Codec ID/Hint                            : XviD
    Duration                                 : 59mn 49s
    Bit rate                                 : 914 Kbps
    Width                                    : 624 pixels
    Height                                   : 352 pixels
    Display aspect ratio                     : 16:9
    Frame rate                               : 23.976 fps
    Color space                              : YUV
    Chroma subsampling                       : 4:2:0
    Bit depth                                : 8 bits
    Scan type                                : Progressive
    Compression mode                         : Lossy
    Bits/(Pixel*Frame)                       : 0.174
    Stream size                              : 391 MiB (87%)
    Writing library                          : XviD 67
    
    Audio
    ID                                       : 1
    Format                                   : MPEG Audio
    Format version                           : Version 1
    Format profile                           : Layer 3
    Mode                                     : Joint stereo
    Codec ID                                 : 55
    Codec ID/Hint                            : MP3
    Duration                                 : 59mn 49s
    Bit rate mode                            : Constant
    Bit rate                                 : 128 Kbps
    Channel(s)                               : 2 channels
    Sampling rate                            : 48.0 KHz
    Compression mode                         : Lossy
    Stream size                              : 54.8 MiB (12%)
    Alignment                                : Split accross interleaves
    Interleave, duration                     : 42 ms (1.00 video frame)
    Interleave, preload duration             : 500 ms
    Writing library                          : LAME3.99.5
    
     

Share This Page