The Man Without a Body (1957)

Discussion in 'Archive' started by llanes13, Oct 21, 2009.

  1. llanes13

    llanes13 Guest

    [​IMG]


    Code:
    http://www.imdb.com/title/tt0050676/
    Code:
    Rating: 4.8/10 (63 votes)
    Runtime: 75
    Language: English
    Country: UK, USA
    Color: Black and White
    
    Code:
    
    Avi details:
    General
    Format : AVI
    File size : 700 MiB
    Duration : 1h 15mn
    
    Video
    ID : 0
    Format : MPEG-4 Visual
    Format profile : AdvancedSimple@L5
    Format settings, BVOP : Yes
    Format settings, QPel : No
    Format settings, GMC : No warppoints
    Format settings, Matrix : Custom
    Codec ID : XVID
    Bit rate : 1 160 Kbps
    Width : 592 pixels
    Height : 448 pixels
    Display aspect ratio : 4:3
    Frame rate : 23.976 fps
    Resolution : 24 bits
    Colorimetry : 4:2:0
    Scan type : Progressive
    Bits/(Pixel*Frame) : 0.182
    Stream size : 627 MiB (90%)
    Writing library : XviD 1.2.1 (UTC 2008-12-04)
    
    Audio
    ID : 1
    Format : MPEG Audio
    Format version : Version 1
    Format profile : Layer 3
    Codec ID/Hint : MP3
    Bit rate mode : Constant
    Bit rate : 128 Kbps
    Channel(s) : 2 channels
    Sampling rate : 48.0 KHz
    Resolution : 16 bits
    Stream size : 69.2 MiB (10%)
    Alignment : Aligned on interleaves
    Interleave, duration : 83 ms (2.00 video frames)
    Interleave, preload duration : 504 ms
    Writing library : LAME3.98r
    Encoding settings : -m j -V 4 -q 2 -lowpass 17 -b 128
    
    
    Code:
    
    http://rapidshare.com/files/295312567/mwb.r00
    http://rapidshare.com/files/295336036/mwb.r01
    http://rapidshare.com/files/295346618/mwb.r02
    http://rapidshare.com/files/295365222/mwb.rar
    
    Rar Password: None
    
    


    [​IMG]

    [​IMG]

    [​IMG]
     
  2. sdmkncxvvy

    sdmkncxvvy Guest

    Thanks kartal21 for this classic movie.....:heyo:
     

Share This Page