The Muppets 2011 BDRip XVID AC3 HQ Hive-CM8

Discussion in '2011 Movies' started by RMTeam, Mar 6, 2012.

  1. RMTeam

    RMTeam Active Member

    Joined:
    Feb 18, 2012
    Messages:
    4,485
    Likes Received:
    2
    Trophy Points:
    38
    The Muppets 2011 BDRip XVID AC3 HQ Hive-CM8

    [​IMG]

    The Muppets (2011)
    Genre: Comedy | Drama | Family
    Directed By: James Bobin
    Cast: Jason Segel, Amy Adams, Chris Cooper
    MPAA Rate: PG
    Storyline: With the help of three fans, The Muppets must reunite to save their old theater from a greedy oil tycoon.


    Code:
        IMDB Rate: 7.8
        IMDB: http://www.imdb.com/title/tt1204342/
    The.Muppets.2011.BDRip.XVID.AC3.HQ.Hive-CM8


    Thx Hive

    CM8 Doing It Right The First Time


    Source: Bluray

    Video: 720x400 @bitrate 1700 2pass
    Audio: English DTS to AC3 5.1 @448
    Subs: Yes, English in srt /subs
    Sample: Yes, included


    General
    Complete name : The.Muppets.2011.BDRip.XVID.AC3.HQ.Hive-CM8.avi
    Format : AVI
    Format/Info : Audio Video Interleave
    File size : 1.55 GiB
    Duration : 1h 42mn
    Overall bit rate : 2 157 Kbps
    Writing application : Nandub v1.0rc2
    Writing library : Nandub build 1853/release

    Video
    ID : 0
    Format : MPEG-4 Visual
    Format profile : Advanced Simple@L5
    Format settings, BVOP : 1
    Format settings, QPel : Yes
    Format settings, GMC : No warppoints
    Format settings, Matrix : Default (H.263)
    Muxing mode : Packed bitstream
    Codec ID : XVID
    Codec ID/Hint : XviD
    Duration : 1h 42mn
    Bit rate : 1 700 Kbps
    Width : 720 pixels
    Height : 400 pixels
    Display aspect ratio : 16:9
    Frame rate : 23.976 fps
    Color space : YUV
    Chroma subsampling : 4:2:0
    Bit depth : 8 bits
    Scan type : Progressive
    Compression mode : Lossy
    Bits/(Pixel*Frame) : 0.246
    Stream size : 1.22 GiB (79%)
    Writing library : XviD 1.2.1 (UTC 2008-12-04)

    Audio
    ID : 1
    Format : AC-3
    Format/Info : Audio Coding 3
    Mode extension : CM (complete main)
    Codec ID : 2000
    Duration : 1h 42mn
    Bit rate mode : Constant
    Bit rate : 448 Kbps
    Channel(s) : 6 channels
    Channel positions : Front: L C R, Side: L R, LFE
    Sampling rate : 48.0 KHz
    Bit depth : 16 bits
    Compression mode : Lossy
    Stream size : 329 MiB (21%)
    Alignment : Split accross interleaves
    Interleave, duration : 42 ms (1.00 video frame)
    Interleave, preload duration : 500 ms


    DOWNLOAD
    Code:
    http://www.rarefile.net/fb0o4j2og0xu/tm.2011.bx.a3.hh-c8.u23440.RMTeam.part1.rar
    http://www.rarefile.net/irqbhbg37wnh/tm.2011.bx.a3.hh-c8.u23440.RMTeam.part2.rar
    http://www.rarefile.net/3ktb4pljq5b5/tm.2011.bx.a3.hh-c8.u23440.RMTeam.part3.rar
    http://www.rarefile.net/1f7zvjflzjl8/tm.2011.bx.a3.hh-c8.u23440.RMTeam.part4.rar
    [​IMG]

    [​IMG]

    [​IMG]
     

Share This Page