The Muppets 2011 BRRip H264 AC3 - DTRG Single 1 Link Full

Discussion in '2011 Movies' started by RMTeam, Mar 3, 2012.

  1. RMTeam

    RMTeam Active Member

    Joined:
    Feb 18, 2012
    Messages:
    4,485
    Likes Received:
    2
    Trophy Points:
    38
    The Muppets 2011 BRRip H264 AC3 - DTRG

    [​IMG]

    The Muppets (2011)
    Genre: Comedy | Drama | Family
    Directed By: James Bobin
    Cast: Jason Segel, Amy Adams, Chris Cooper
    MPAA Rate: PG
    Storyline: With the help of three fans, The Muppets must reunite to save their old theater from a greedy oil tycoon.

    Code:
        IMDB Rate: 7.8
        IMDB: http://www.imdb.com/title/tt1204342/
    Complete name : The Muppets 2011 BRRip H264 AC3 - DTRG.mkv
    Format : Matroska
    Format version : Version 2
    File size : 698 MiB
    Duration : 1h 42mn
    Overall bit rate : 950 Kbps
    Encoded date : UTC 2012-03-02 19:37:34
    Writing application : mkvmerge v5.2.1 ('A Far Off Place') built on Jan 2 2012 23:21:10
    Writing library : libebml v1.2.3 + libmatroska v1.3.0

    Video
    ID : 1
    Format : AVC
    Format/Info : Advanced Video Codec
    Format profile : High@L4.2
    Format settings, CABAC : Yes
    Format settings, ReFrames : 4 frames
    Codec ID : V_MPEG4/ISO/AVC
    Duration : 1h 42mn
    Bit rate : 820 Kbps
    Width : 720 pixels
    Height : 400 pixels
    Display aspect ratio : 16:9
    Frame rate : 23.976 fps
    Color space : YUV
    Chroma subsampling : 4:2:0
    Bit depth : 8 bits
    Scan type : Progressive
    Bits/(Pixel*Frame) : 0.119
    Stream size : 590 MiB (85%)
    Writing library : x264 core 120 r2146 bcd41db
    Language : English
    Default : Yes
    Forced : No
    Source : 720p, thanks mate...

    Audio
    ID : 2
    Format : AC-3
    Format/Info : Audio Coding 3
    Mode extension : CM (complete main)
    Codec ID : A_AC3
    Duration : 1h 42mn
    Bit rate mode : Constant
    Bit rate : 128 Kbps
    Channel(s) : 2 channels
    Channel positions : Front: L R
    Sampling rate : 48.0 KHz
    Bit depth : 16 bits
    Compression mode : Lossy
    Stream size : 94.1 MiB (13%)
    Default : Yes
    Forced : No
    Source : 720p, thanks mate...



    DOWNLOAD
    Code:
    http://www.rarefile.net/zhv5poisfzzs/t.m.2011.b.h264.a3.d.u23393.RMTeam.rar
    [​IMG]

    [​IMG]

    [​IMG]
     

Share This Page