The Muppets (2011) BRRip x264 AC3-EX0TiC Single 1 Link Full

Discussion in '2011 Movies' started by RMTeam, Mar 4, 2012.

  1. RMTeam

    RMTeam Active Member

    Joined:
    Feb 18, 2012
    Messages:
    4,485
    Likes Received:
    2
    Trophy Points:
    38
    The Muppets (2011) BRRip x264 AC3-EX0TiC

    [​IMG]

    The Muppets (2011)
    Genre: Comedy | Drama | Family
    Directed By: James Bobin
    Cast: Jason Segel, Amy Adams, Chris Cooper
    MPAA Rate: PG
    Storyline: With the help of three fans, The Muppets must reunite to save their old theater from a greedy oil tycoon.

    Code:
        IMDB Rate: 7.8
        IMDB: http://www.imdb.com/title/tt1204342/
    Format : Matroska
    Format version : Version 2
    File size : 600 MiB
    Duration : 1h 42mn
    Overall bit rate : 817 Kbps

    Video
    ID : 1
    Format : AVC
    Format/Info : Advanced Video Codec
    Format profile : High@L3.0
    Format settings, CABAC : Yes
    Format settings, ReFrames : 4 frames
    Codec ID : V_MPEG4/ISO/AVC
    Duration : 1h 42mn
    Bit rate : 684 Kbps
    Width : 704 pixels
    Height : 400 pixels
    Display aspect ratio : 16:9
    Frame rate mode : Variable
    Frame rate : 23.976 fps
    Color space : YUV
    Chroma subsampling : 4:2:0
    Bit depth : 8 bits
    Scan type : Progressive
    Bits/(Pixel*Frame) : 0.101
    Stream size : 494 MiB (82%)
    Writing library : x264 core 112

    Audio
    ID : 2
    Format : AC-3
    Format/Info : Audio Coding 3
    Mode extension : CM (complete main)
    Codec ID : A_AC3
    Duration : 1h 42mn
    Bit rate mode : Constant
    Bit rate : 128 Kbps
    Channel(s) : 2 channels
    Channel positions : Front: L R
    Sampling rate : 48.0 KHz
    Bit depth : 16 bits
    Compression mode : Lossy
    Stream size : 94.1 MiB (16%)
    Language : English


    DOWNLOAD
    Code:
    http://www.rarefile.net/4m91e54precm/t.m.2011.b.x264.a3-e0t.u23424.RMTeam.rar
    [​IMG]

    [​IMG]
     

Share This Page