The Muppets 2011 BRRIP x264 AC3 HQ 5 1 - HOPE

Discussion in '2011 Movies' started by RMTeam, Mar 3, 2012.

  1. RMTeam

    RMTeam Active Member

    Joined:
    Feb 18, 2012
    Messages:
    4,485
    Likes Received:
    2
    Trophy Points:
    38
    The Muppets 2011 BRRIP x264 AC3 HQ 5 1 - HOPE

    [​IMG]

    The Muppets (2011)
    Genre: Comedy | Drama | Family
    Directed By: James Bobin
    Cast: Jason Segel, Amy Adams, Chris Cooper
    MPAA Rate: PG
    Storyline: With the help of three fans, The Muppets must reunite to save their old theater from a greedy oil tycoon.

    Code:
        IMDB Rate: 7.8
        IMDB: http://www.imdb.com/title/tt1204342/
    Information:
    Format : Matroska
    Format version : Version 2
    File size : 933 MiB
    Duration : 1h 42mn
    Overall bit rate : 1 269 Kbps
    Encoded date : UTC 2012-03-03 13:05:52
    Writing application : mkvmerge v5.3.0 ('I could have danced') built on Feb 9 2012 10:38:07
    Writing library : libebml v1.2.3 + libmatroska v1.3.0

    Video
    ID : 1
    Format : AVC
    Format/Info : Advanced Video Codec
    Format profile : High@L5.1
    Format settings, CABAC : Yes
    Format settings, ReFrames : 6 frames
    Codec ID : V_MPEG4/ISO/AVC
    Duration : 1h 42mn
    Bit rate : 820 Kbps
    Width : 720 pixels
    Height : 400 pixels
    Display aspect ratio : 16:9
    Frame rate : 23.976 fps
    Color space : YUV
    Chroma subsampling : 4:2:0
    Bit depth : 8 bits
    Scan type : Progressive
    Bits/(Pixel*Frame) : 0.119
    Stream size : 585 MiB (63%)
    Writing library : x264 core 120 r2164 da19765

    Audio
    ID : 2
    Format : AC-3
    Format/Info : Audio Coding 3
    Mode extension : CM (complete main)
    Codec ID : A_AC3
    Duration : 1h 42mn
    Bit rate mode : Constant
    Bit rate : 448 Kbps
    Channel(s) : 6 channels
    Channel positions : Front: L C R, Side: L R, LFE
    Sampling rate : 48.0 KHz
    Bit depth : 16 bits
    Compression mode : Lossy
    Stream size : 329 MiB (35%)



    DOWNLOAD
    Code:
    http://www.rarefile.net/z30syeqovpl6/t.m.2011.b.x264.a3.h.5.1.h.u23386.RMTeam.rar
    [​IMG]

    [​IMG]

    [​IMG]
     

Share This Page