The Pirates In an Adventure with Scientists CAM XViD - INSPiRAL

Discussion in '2012 Movies' started by RMTeam, Apr 14, 2012.

  1. RMTeam

    RMTeam Active Member

    Joined:
    Feb 18, 2012
    Messages:
    4,485
    Likes Received:
    2
    Trophy Points:
    38
    The Pirates In an Adventure with Scientists CAM XViD - INSPiRAL

    [​IMG]

    The Pirates! Band of Misfits (2012)
    Genre: Animation | Adventure | Family
    Directed By: Peter Lord, Jeff Newitt
    Cast: Hugh Grant, Brendan Gleeson, Jeremy Piven
    MPAA Rate: PG
    Storyline: Pirate Captain sets out on a mission to defeat his rivals Black Bellamy and Cutlass Liz for the Pirate of the year Award. The quest takes Captain and his crew from the shores of Blood Island to the foggy streets of Victorian London.

    [​IMG]

    [​IMG]

    SOURCES:

    VIDEO - Deep and P76 for sending it us THANKS
    AUDIO - Wallace and Gromit THANKS
    SUBS - None Add

    STATS:

    Video
    ID : 0
    Format : MPEG-4 Visual
    Format profile : Advanced Simple@L5
    Format settings, BVOP : 2
    Format settings, QPel : No
    Format settings, GMC : No warppoints
    Format settings, Matrix : Default (MPEG)
    Muxing mode : Packed bitstream
    Codec ID : XVID
    Codec ID/Hint : XviD
    Duration : 1h 20mn
    Bit rate : 2 314 Kbps
    Width : 720 pixels
    Height : 272 pixels
    Display aspect ratio : 2.647
    Frame rate : 25.000 fps
    Color space : YUV
    Chroma subsampling : 4:2:0
    Bit depth : 8 bits
    Scan type : Progressive
    Compression mode : Lossy
    Bits/(Pixel*Frame) : 0.473
    Stream size : 1.30 GiB (95%)
    Writing library : XviD 64

    Audio
    ID : 1
    Format : MPEG Audio
    Format version : Version 1
    Format profile : Layer 3
    Mode : Joint stereo
    Mode extension : MS Stereo
    Codec ID : 55
    Codec ID/Hint : MP3
    Duration : 1h 18mn
    Bit rate mode : Constant
    Bit rate : 128 Kbps
    Channel(s) : 2 channels
    Sampling rate : 44.1 KHz
    Compression mode : Lossy
    Stream size : 71.9 MiB (5%)
    Alignment : Split accross interleaves
    Interleave, duration : 41 ms (1.02 video frame)
    Interleave, preload duration : 500 ms


    Code:
    http://xxxxxxxx/27ysu989/t.p.i.a.a.w.s.c.x.i.u30336.RMTeam.part3.rar
    http://xxxxxxxx/m8ymjfys/t.p.i.a.a.w.s.c.x.i.u30336.RMTeam.part2.rar
    http://xxxxxxxx/6asidbz8/t.p.i.a.a.w.s.c.x.i.u30336.RMTeam.part1.rar
    
     

Share This Page