The Salvation (2014) 720p BluRay x264 DTS-RBG

Discussion in 'BluRay - 720p to 1080p & DvdR' started by Sheriff, Nov 23, 2014.

  1. Sheriff

    Sheriff Administrator Staff Member

    Joined:
    Feb 18, 2012
    Messages:
    42,218
    Likes Received:
    1,417
    Trophy Points:
    113
    Divxturka.net is using Redbunker! Because Redbunker is better than Hotfile, Netload and Rapidshare ! Click here and buy REDBUNKER premium account!

    [​IMG]

    Plot:
    In 1870s America, a peaceful American settler kills his family’s murderer which unleashes the fury of a notorious gang leader. His cowardly fellow townspeople then betray him, forcing him to hunt down the outlaws alone.

    Genre: Drama | Western
    IMDB Rating: 6.9/10 from 3,155 users Metascore: 60/100
    Directed by: Kristian Levring
    Starring: Mads Mikkelsen, Eva Green, Jeffrey Dean Morgan

    Release Name: The.Salvation.2014.720p.BluRay.x264.DTS-RBG
    Size: 4.46 GiB
    Video: MKV | 1280 × 538 | 5 500 Kbps
    Audio: English | DTS | 1 509 Kbps
    Runtime: 88 mins
    Subtitles: English (Selectable)

    Information:
    Code:
    http://www.imdb.com/title/tt2720680/
    
    Download:

    Please use this LINK to REGISTER or RENEW your account on REDBUNKER to support us.

    Code:
    Download from REDBUNKER
    http://www.redbunker.net/06sfgp35xwsu/The.Salvation.2014.720p.BluRay.x264.DTS-RBG.mkv.html
    
    Screens:

    [​IMG]
    [​IMG]
    [​IMG]

    NFO:
    Code:
        The.Salvation.2014.720p.BluRay.x264.DTS-RARBG
         
        Info:
         
        [mediainfo]
         
        Video
        ID                                       : 1
        Format                                   : AVC
        Format/Info                              : Advanced Video Codec
        Format profile                           : High@L4.1
        Format settings, CABAC                   : Yes
        Format settings, ReFrames                : 4 frames
        Codec ID                                 : V_MPEG4/ISO/AVC
        Duration                                 : 1h 32mn
        Bit rate                                 : 5 500 Kbps
        Width                                    : 1 280 pixels
        Height                                   : 538 pixels
        Display aspect ratio                     : 2.40:1
        Frame rate mode                          : Constant
        Frame rate                               : 24.000 fps
        Color space                              : YUV
        Chroma subsampling                       : 4:2:0
        Bit depth                                : 8 bits
        Scan type                                : Progressive
        Bits/(Pixel*Frame)                       : 0.333
        Stream size                              : 3.40 GiB (76%)
        Title                                    : The.Salvation.2014.720p.BluRay.x264.DTS-RARBG
        Writing library                          : x264 core 142 r2479 dd79a61
        Encoding settings                        : cabac=1 / ref=4 / deblock=1:-1:-1 / analyse=0x3:0x113 / me=umh >>
        / subme=8 / psy=1 / psy_rd=1.00:0.15 / mixed_ref=1 / me_range=16 / chroma_me=1 / trellis=1 / 8x8dct=1 >>
        / cqm=0 / deadzone=21,11 / fast_pskip=1 / chroma_qp_offset=-3 / threads=12 / lookahead_threads=2 / >>
        sliced_threads=0 / nr=0 / decimate=1 / interlaced=0 / bluray_compat=0 / constrained_intra=0 / >>
        bframes=3 / b_pyramid=2 / b_adapt=2 / b_bias=0 / direct=3 / weightb=1 / open_gop=0 / weightp=2 / >>
        keyint=240 / keyint_min=24 / scenecut=40 / intra_refresh=0 / rc_lookahead=50 / rc=abr / mbtree=1 / >>
        bitrate=5500 / ratetol=1.0 / qcomp=0.60 / qpmin=0 / qpmax=69 / qpstep=4 / vbv_maxrate=62500 / >>
        vbv_bufsize=78125 / nal_hrd=none / filler=0 / ip_ratio=1.40 / aq=1:1.00
        Default                                  : Yes
        Forced                                   : No
        Color primaries                          : BT.709
        Transfer characteristics                 : BT.709
        Matrix coefficients                      : BT.709
         
        Audio
        ID                                       : 2
        Format                                   : DTS
        Format/Info                              : Digital Theater Systems
        Mode                                     : 16
        Format settings, Endianness              : Big
        Codec ID                                 : A_DTS
        Duration                                 : 1h 32mn
        Bit rate mode                            : Constant
        Bit rate                                 : 1 509 Kbps
        Channel(s)                               : 6 channels
        Channel positions                        : Front: L C R, Side: L R, LFE
        Sampling rate                            : 48.0 KHz
        Bit depth                                : 24 bits
        Compression mode                         : Lossy
        Stream size                              : 993 MiB (22%)
        Title                                    : The.Salvation.2014.720p.BluRay.x264.DTS-RARBG
        Language                                 : English
        Default                                  : Yes
        Forced                                   : No
         
        Text
        ID                                       : 3
        Format                                   : UTF-8
        Codec ID                                 : S_TEXT/UTF8
        Codec ID/Info                            : UTF-8 Plain Text
        Title                                    : English_FORCED
        Language                                 : English
        Default                                  : Yes
        Forced                                   : Yes
         
        Menu
        00:00:00.000                             : :00:00:00.000
        00:09:59.917                             : :00:09:59.792
        00:20:00.083                             : :00:20:00.000
        00:29:59.958                             : :00:29:59.833
        00:39:59.708                             : :00:39:59.583
        00:49:59.917                             : :00:49:59.792
        00:59:59.917                             : :00:59:59.750
        01:09:59.792                             : :01:09:59.625
        01:19:59.917                             : :01:19:59.750
        01:30:00.042                             : :01:29:59.917
         
        [/mediainfo]
         
        Notes:
        Greetz to everyone
     

Share This Page