The Samaritan 2012 DVDRip XVID AC3 HQ Hive

Discussion in '2012 Movies' started by BetterRhyme, May 2, 2012.

  1. BetterRhyme

    BetterRhyme Guest

    [​IMG]

    The Samaritan 2012 DVDRip XVID AC3 HQ Hive-CM8 | 1.36 GB
    Thx Hive

    CM8 Doing It Right The First Time

    Source: Legend RG DVD-R
    thx

    Encode:
    Dvd was very nice, did the usual, added sharpness,brightness,rgb and denoise
    got very nice
    enjoy

    Video: 720x400 @bitrate 1700 2pass
    Audio: English AC3 5.1 @448
    Sample: yes included

    Code:
    http://www.imdb.com/title/tt1867093/
    General
    Complete name : The.Samaritan.2012.aka.Fury.DVDRip.XVID.AC3.HQ.Hive-CM8.avi
    Format : AVI
    Format/Info : Audio Video Interleave
    File size : 1.35 GiB
    Duration : 1h 29mn
    Overall bit rate : 2 157 Kbps
    Writing application : Nandub v1.0rc2
    Writing library : Nandub build 1853/release

    Video
    ID : 0
    Format : MPEG-4 Visual
    Format profile : Advanced Simple@L5
    Format settings, BVOP : 2
    Format settings, QPel : Yes
    Format settings, GMC : No warppoints
    Format settings, Matrix : Default (H.263)
    Muxing mode : Packed bitstream
    Codec ID : XVID
    Codec ID/Hint : XviD
    Duration : 1h 29mn
    Bit rate : 1 700 Kbps
    Width : 720 pixels
    Height : 400 pixels
    Display aspect ratio : 16:9
    Frame rate : 25.000 fps
    Color space : YUV
    Chroma subsampling : 4:2:0
    Bit depth : 8 bits
    Scan type : Progressive
    Compression mode : Lossy
    Bits/(Pixel*Frame) : 0.236
    Stream size : 1.06 GiB (79%)
    Writing library : XviD 1.2.1 (UTC 2008-12-04)

    Audio
    ID : 1
    Format : AC-3
    Format/Info : Audio Coding 3
    Mode extension : CM (complete main)
    Codec ID : 2000
    Duration : 1h 29mn
    Bit rate mode : Constant
    Bit rate : 448 Kbps
    Channel(s) : 6 channels
    Channel positions : Front: L C R, Side: L R, LFE
    Sampling rate : 48.0 KHz
    Bit depth : 16 bits
    Compression mode : Lossy
    Stream size : 286 MiB (21%)
    Alignment : Split accross interleaves
    Interleave, duration : 40 ms (1.00 video frame)
    Interleave, preload duration : 500 ms

    After twenty years in prison, Foley is finished with the grifter's life.
    When he meets an elusive young woman named Iris, the possibility of a new start looks real.
    But his past is proving to be a stubborn companion.

    Samuel L. Jackson ... Foley
    Luke Kirby ... Ethan
    Ruth Negga ... Iris
    Tom Wilkinson ... Xavier

    [​IMG]

    Code:
    http://shareflare.net/download/07858.0be045abe1a4f257f7e0900bfeee/The.Samaritan.2012.DVDRip.XVID.AC3.HQ.HiveCM8.part1.rar.html
    http://shareflare.net/download/56431.5b7d6f09e4cd9be1979ab77e5474/The.Samaritan.2012.DVDRip.XVID.AC3.HQ.HiveCM8.part2.rar.html
    or
    http://letitbit.net/download/08092.0be045abe1a4f257f7e0900bfeee/The.Samaritan.2012.DVDRip.XVID.AC3.HQ.HiveCM8.part1.rar.html
    http://letitbit.net/download/54020.5b7d6f09e4cd9be1979ab77e5474/The.Samaritan.2012.DVDRip.XVID.AC3.HQ.HiveCM8.part2.rar.html
     
  2. BetterRhyme

    BetterRhyme Guest

    Enjoy ..!
     

Share This Page