The Smurfs 2 2013 CAM READ NFO XViD-VAiN

Discussion in '2013 Movies' started by Sheriff, Aug 5, 2013.

  1. Sheriff

    Sheriff Administrator Staff Member

    Feb 18, 2012
    Likes Received:
    Trophy Points:
    113 is using Redbunker! Because Redbunker is better than Hotfile, Netload and Rapidshare ! Click here and buy REDBUNKER premium account!




    The evil wizard Gargamel creates a couple of mischievous Smurf-like creatures called the Naughties that he hopes will let him harness the all-powerful, magical Smurf-essence. But when he discovers that only a real Smurf can give him what he wants, and only a secret spell that Smurfette knows can turn the Naughties into real Smurfs, Gargamel kidnaps Smurfette and brings her to Paris, where he has been winning the adoration of millions as the world¹s greatest sorcerer. It’s up to Papa, Clumsy, Grouchy, and Vanity to return to our world, reunite with their human friends Patrick and Grace Winslow, and rescue her! Will Smurfette, who has always felt different from the other Smurfs, find a new connection with the Naughties Vexy and Hackus or will the Smurfs convince her that their love for her is True Blue?

    Genre: Animation | Comedy | Family | Fantasy
    IMDB rating: 4.8/10 from 1,416 users
    Directed by: Raja Gosnell
    Starring: Hank Azaria, Neil Patrick Harris, Jayma Mays

    Release Name: The.Smurfs.2.2013.CAM.READ.NFO.XViD-VAiN
    Size: 1.37 GiB
    Video: AVi | 640×304 | 1 882 Kbps
    Audio: English | MP3 | 128 kbps
    Runtime: 1h 37mn

    Single Link No Extraction



        VAiN . P R E S E N T S . . .
         PLOT........: The Smurfs team up with their human friends to rescue Smurfette, who has been kidnapped by Gargamel since she knows a secret spell that can turn the evil sorcerer's newest creation - creatures called the Naughties - into real Smurfs.  
         T E C H N i C A L . i N F O . . .      
         Format                           : AVI
         Format/Info                      : Audio Video Interleave
         File size                        : 1.37 GiB
         Duration                         : 1h 37mn
         Overall bit rate                 : 2 022 Kbps
         Movie name                       : Smurfiki.2.2013.D.TS.1400MB.INTERCINEMA
         Director                         : INTERCINEMA
         Writing application              : VirtualDubMod (build 2540/release)
         Writing library                  : VirtualDubMod build 2540/release
         Copyright                        :
         ID                               : 0
         Format                           : MPEG-4 Visual
         Format profile                   : Advanced Simple@L5
         Format settings, BVOP            : 2
         Format settings, QPel            : No
         Format settings, GMC             : No warppoints
         Format settings, Matrix          : Default (MPEG)
         Muxing mode                      : Packed bitstream
         Codec ID                         : XVID
         Codec ID/Hint                    : XviD
         Duration                         : 1h 37mn
         Bit rate                         : 1 882 Kbps
         Width                            : 640 pixels
         Height                           : 304 pixels
         Display aspect ratio             : 2.2:1
         Frame rate                       : 29.970 fps
         Color space                      : YUV
         Chroma subsampling               : 4:2:0
         Bit depth                        : 8 bits
         Scan type                        : Progressive
         Compression mode                 : Lossy
         Bits/(Pixel*Frame)               : 0.323
         Stream size                      : 1.28 GiB (93%)
         Writing library                  : XviD 64
         ID                               : 1
         Format                           : MPEG Audio
         Format version                   : Version 1
         Format profile                   : Layer 3
         Codec ID                         : 55
         Codec ID/Hint                    : MP3
         Duration                         : 1h 37mn
         Bit rate mode                    : Constant
         Bit rate                         : 128 Kbps
         Channel(s)                       : 2 channels
         Sampling rate                    : 44.1 KHz
         Compression mode                 : Lossy
         Stream size                      : 88.9 MiB (6%)
         Alignment                        : Split accross interleaves
         Interleave, duration             : 33 ms (1.00 video frame)
         E N C O D E R S . N O T E S . . .      
         SOURCE......:  ViDEO:Smurfiki.2.2013.D.TS.1400MB.INTERCINEMA [thanx]
                                 AUDiO: The DOGZ BOLLAX  thanks brochacho
         SAMPLE......: Yes! duh...
         ADDED NOTE..: well here we are again, this time, all this is a re-encode of the russian release which seems to be from a spanish source. as with most cams, taken from the side, has movement this release already has someones filters being used and ben worked over.
         work that needed done, rotated, croped, bit of the ol' perspective to straighten out and level off best we can. while not a lot of noise and some decent detail, there were parts that the saturation needed some attention. brought those down, tweaked rgb & a splash of sharpness to bring back some of the detail due to the loss using a de-noiser.
         ** reason why mostly to read nfo - - throughout the movie there are some hot spots and a few places where the whites are off the notice the worst about 3/4 of the way through. "you have been warned" -  audio is from a special friend and we are greatful for the hook up. it's amazing sounding for what it is. . .
         a very special thanx to tommiecook & 26k for the great job of the sync of audio. cheers m8's
         v/5 a/7
         cheers to the cammer, the provider and everyone that assist in helping us bring QUALiTY - -to you all
         WORK.DONE . . .
         S C R E E N . S H O T S . . .
  2. qcp555

    qcp555 Redbunker Premium Account Holder

    Apr 5, 2013
    Likes Received:
    Trophy Points:
    Thank you !!!

Share This Page