The Spy Next Door (2010) DVDRiP.LiNE.XViD.READNFO-IMAGiNE

Discussion in 'Archive' started by L33Tups, Feb 9, 2010.

  1. L33Tups

    L33Tups Guest

    The Spy Next Door (2010) DVDRiP.LiNE.XViD.READNFO-IMAGiNE

    10% data recovery! My upload!

    [​IMG]


    RELEASE .NFO:
    Code:
    Ripper ...........: IMAGiNE                                        IMDB Rating.......:5.3/10                            
    Video Codec.......: XVID                                         Release Date......:09/02/10
    Audio Codec.......:MP3                                           Theatre Date......:15/01/09
    Audio Bitrate.....:128                                              Runtime.......:1h 30mn
    Subtitles.........:NIL                                                 Language..........:ENGLISH
    Resolution...... 640 x 352                                      IMDb URL..........:http://www.imdb.com/title/tt1273678/
    
    
    DETAILS:
    
    Video
    ID                               : 0
    Format                           : MPEG-4 Visual
    Format profile                   : Advanced Simple@L5
    Format settings, BVOP            : Yes
    Format settings, QPel            : No
    Format settings, GMC             : No warppoints
    Format settings, Matrix          : Default (H.263)
    Muxing mode                      : Packed bitstream
    Codec ID                         : XVID
    Codec ID/Hint                    : XviD
    Duration                         : 1h 30mn
    Bit rate                         : 955 Kbps
    Width                            : 640 pixels
    Height                           : 352 pixels
    Display aspect ratio             : 16:9
    Frame rate                       : 25.000 fps
    Resolution                       : 8 bits
    Colorimetry                      : 4:2:0
    Scan type                        : Progressive
    Bits/(Pixel*Frame)               : 0.169
    Stream size                      : 616 MiB (87%)
    Writing library                  : XviD 1.2.1 (UTC 2008-12-04)
    
    Audio
    ID                               : 1
    Format                           : MPEG Audio
    Format version                   : Version 1
    Format profile                   : Layer 3
    Mode                             : Joint stereo
    Format_Settings_ModeExtension    : MS Stereo
    Codec ID                         : 55
    Codec ID/Hint                    : MP3
    Duration                         : 1h 30mn
    Bit rate mode                    : Constant
    Bit rate                         : 128 Kbps
    Channel(s)                       : 2 channels
    Sampling rate                    : 44.1 KHz
    Stream size                      : 82.6 MiB (12%)
    Alignment                        : Split accross interleaves
    Interleave, duration             : 40 ms (1.00 video frame)
    Interleave, preload duration     : 500 ms
    
    
    NOTES:
    
    IMAGiNE bringing you another release.....
    We were unsure how to tag this properly but the source we used was the The.Spy.Next.Door.2010.CN.DVDRip.XviD-XTM.
    So now of course the audio wasn't english and there isn'y any studio audio.....so we went with dvdrip line readnfo..
    Anyway the video was really nice but was subbed so we blurred the subs and then slightly tweaked the video just a touch and
    also resized it as the res was small.
    Once done we had to sync it up which was a pain and also remove some audio as the video wasn't there .....anyway got there in the
    end so enjoy.

    SCREEN'S:
    [​IMG]
    [​IMG]
    [​IMG]


    SAMPLE - DOWNLOAD LINK:
    Code:
    http://rapidshare.com/files/348307742/The_Spy_Next_Door_DVDRiP_LiNE_XViD_READNFO_-_SAMPLE.avi

    DOWNLOAD LINK'S - 200MB PART'S:
    Code:
    RAPIDSHARE.COM:
    http://rapidshare.com/files/348309452/TSND.DVDRiP.LiNE.XViD-IMAGiNE.part1.rar
    http://rapidshare.com/files/348309559/TSND.DVDRiP.LiNE.XViD-IMAGiNE.part2.rar
    http://rapidshare.com/files/348313027/TSND.DVDRiP.LiNE.XViD-IMAGiNE.part3.rar
    http://rapidshare.com/files/348312790/TSND.DVDRiP.LiNE.XViD-IMAGiNE.part4.rar
    
    = OR / INTERCHANGEABLE =
    
    NETLOAD.IN:
    http://netload.in/datei97andPySGB/TSND.DVDRiP.LiNE.XViD-IMAGiNE.part1.rar.htm
    http://netload.in/dateiaoCV7L9UBs/TSND.DVDRiP.LiNE.XViD-IMAGiNE.part2.rar.htm
    http://netload.in/datei1tmEtwe2vO/TSND.DVDRiP.LiNE.XViD-IMAGiNE.part3.rar.htm
    http://netload.in/dateiTDd6FKvS3R/TSND.DVDRiP.LiNE.XViD-IMAGiNE.part4.rar.htm
    
    = OR / INTERCHANGEABLE =
    
    HOTFILE.COM:
    http://hotfile.com/dl/27877254/e8b97eb/TSND.DVDRiP.LiNE.XViD-IMAGiNE.part1.rar.html
    http://hotfile.com/dl/27877162/5a8854a/TSND.DVDRiP.LiNE.XViD-IMAGiNE.part2.rar.html
    http://hotfile.com/dl/27877012/f871dff/TSND.DVDRiP.LiNE.XViD-IMAGiNE.part3.rar.html
    http://hotfile.com/dl/27876927/f9e3d02/TSND.DVDRiP.LiNE.XViD-IMAGiNE.part4.rar.html
    
    ! NO PASSWORD ! SINGLE EXTRACTION !

    DOWNLOAD LINK'S - 400MB PART'S:
    Code:
    NETLOAD.IN:
    http://netload.in/dateiCzqNxT5Pcc/TSND.DVDRiP.LiNE.XViD-IMAGiNEz.part1.rar.htm
    http://netload.in/datei85IfRACZoz/TSND.DVDRiP.LiNE.XViD-IMAGiNEz.part2.rar.htm
    
    = OR / INTERCHANGEABLE =
    
    HOTFILE.COM:
    http://hotfile.com/dl/27876760/b247a27/TSND.DVDRiP.LiNE.XViD-IMAGiNEz.part1.rar.html
    http://hotfile.com/dl/27876420/92246af/TSND.DVDRiP.LiNE.XViD-IMAGiNEz.part2.rar.html
    
    ! NO PASSWORD ! SINGLE EXTRACTION !
    ENJOY! ...and say "THANK'S" If you appreciate my work ;)
     
  2. bobbo69

    bobbo69 Guest

    Thank you.
     
  3. vindiesel

    vindiesel New Member

    Joined:
    Mar 29, 2012
    Messages:
    0
    Likes Received:
    0
    Trophy Points:
    0
    great up thanks man!
     
  4. nickbek

    nickbek New Member

    Joined:
    Apr 13, 2012
    Messages:
    0
    Likes Received:
    0
    Trophy Points:
    0
    moved post in proper section.bin with infraction next time
     
  5. doto22

    doto22 Guest

    Thanks for the D/L
     
  6. bobbo69

    bobbo69 Guest

    Very good quality, thanks for the share L33Tups, but it's not a dvdrip, it's a dvdscreen with the watermarks erased, you can still see them a little, but, lke I said, the quality is awsome.:declare:
     
  7. itisjust4fun

    itisjust4fun Guest

    .

    Thanks L33Tups..... Will take a look
     
  8. snowann_my

    snowann_my Guest

    thank you
     
  9. jimmy_812005

    jimmy_812005 Guest

    Finally I got this movie with good quality. thanks mate.
     
  10. megas

    megas Guest

    thanks
     
  11. wallywish

    wallywish Guest

    thank you
     
  12. jopan

    jopan Guest

    thanks!!
     
  13. murtadha

    murtadha Guest

    thanks..
     

Share This Page