The Task 2011 Proper BRRip XviD Ac3 Feel-Free

Discussion in '2011 Movies' started by RMTeam, Apr 14, 2012.

  1. RMTeam

    RMTeam Active Member

    Joined:
    Feb 18, 2012
    Messages:
    4,485
    Likes Received:
    2
    Trophy Points:
    38
    The Task 2011 Proper BRRip XviD Ac3 Feel-Free

    [​IMG]

    The Task (2011)
    Genre: Horror
    Directed By: Alex Orwell
    Cast: Alexandra Staden, Victor McGuire, Adam Rayner
    MPAA Rate: R
    Storyline: A group of unlucky reality show contestants must survive the night in a haunted jail.


    [​IMG]

    [​IMG]

    Format : AVI
    Format/Info : Audio Video Interleave
    File size : 883 MiB
    Duration : 1h 30mn
    Overall bit rate : 1 363 Kbps

    Video
    ID : 0
    Format : MPEG-4 Visual
    Format profile : Advanced [email protected]
    Format settings, BVOP : 1
    Format settings, QPel : No
    Format settings, GMC : No warppoints
    Format settings, Matrix : Default (H.263)
    Codec ID : XVID
    Codec ID/Hint : XviD
    Duration : 1h 30mn
    Bit rate : 905 Kbps
    Width : 640 pixels
    Height : 360 pixels
    Display aspect ratio : 16:9
    Frame rate : 25.000 fps
    Color space : YUV
    Chroma subsampling : 4:2:0
    Bit depth : 8 bits
    Scan type : Progressive
    Compression mode : Lossy
    Bits/(Pixel*Frame) : 0.157
    Stream size : 587 MiB (66%)
    Writing library : XviD 1.2.1 (UTC 2008-12-04)

    Audio
    ID : 1
    Format : AC-3
    Format/Info : Audio Coding 3
    Mode extension : CM (complete main)
    Codec ID : 2000
    Duration : 1h 30mn
    Bit rate mode : Constant
    Bit rate : 448 Kbps
    Channel(s) : 6 channels
    Channel positions : Front: L C R, Side: L R, LFE
    Sampling rate : 48.0 KHz
    Bit depth : 16 bits
    Compression mode : Lossy
    Stream size : 290 MiB (33%)
    Alignment : Aligned on interleaves
    Interleave, duration : 40 ms (1.00 video frame)
    Interleave, preload duration : 512 ms

    Code:
    http://xxxxxxxx/x026ilba/tt.2011.pbx.a3.ff.u30334.RMTeam.rar
    
     

Share This Page