The Woman in Black 2012 BRRip XviD AC3 - BTRG

Discussion in '2012 Movies' started by RMTeam, May 5, 2012.

  1. RMTeam

    RMTeam Active Member

    Joined:
    Feb 18, 2012
    Messages:
    4,485
    Likes Received:
    2
    Trophy Points:
    38
    The Woman in Black 2012 BRRip XviD AC3 - BTRG

    [​IMG]


    The Woman in Black (2012)
    Genre: Drama | Horror | Thriller
    Directed By: James Watkins
    Cast: Emma Shorey, Molly Harmon, Sophie Stuckey
    MPAA Rate: PG-13
    Storyline: A young lawyer travels to a remote village where he discovers the vengeful ghost of a scorned woman is terrorizing the locals.

    [​IMG]

    [​IMG]

    Quote:Format : AVI
    Format/Info : Audio Video Interleave
    File size : 700 MiB
    Duration : 1h 35mn
    Overall bit rate : 1 027 Kbps
    Writing application : VirtualDubMod 1.5.10.3 | VirtualDub-Fr.org || (build 2550/release)
    Writing library : VirtualDubMod build 2550/release

    Video
    ID : 0
    Format : MPEG-4 Visual
    Format profile : Advanced Simple@L5
    Format settings, BVOP : 1
    Format settings, QPel : No
    Format settings, GMC : No warppoints
    Format settings, Matrix : Custom
    Codec ID : XVID
    Codec ID/Hint : XviD
    Duration : 1h 35mn
    Bit rate : 890 Kbps
    Width : 672 pixels
    Height : 288 pixels
    Display aspect ratio : 2.35:1
    Frame rate : 23.976 fps
    Color space : YUV
    Chroma subsampling : 4:2:0
    Bit depth : 8 bits
    Scan type : Progressive
    Compression mode : Lossy
    Bits/(Pixel*Frame) : 0.192
    Stream size : 607 MiB (87%)
    Writing library : XviD 1.2.1 (UTC 2008-12-04)

    Audio
    ID : 1
    Format : AC-3
    Format/Info : Audio Coding 3
    Mode extension : CM (complete main)
    Codec ID : 2000
    Duration : 1h 35mn
    Bit rate mode : Constant
    Bit rate : 128 Kbps
    Channel(s) : 6 channels
    Channel positions : Front: L C R, Side: L R, LFE
    Sampling rate : 48.0 KHz
    Bit depth : 16 bits
    Compression mode : Lossy
    Stream size : 87.3 MiB (12%)
    Alignment : Split accross interleaves
    Interleave, duration : 42 ms (1.00 video frame)
    Interleave, preload duration : 500 ms

    .







    .​
     

Share This Page