There Be Dragons 2011 BRRip x264-SiC

Discussion in '2011 Movies' started by RMTeam, Mar 10, 2012.

  1. RMTeam

    RMTeam Active Member

    Joined:
    Feb 18, 2012
    Messages:
    4,485
    Likes Received:
    2
    Trophy Points:
    38
    There Be Dragons 2011 BRRip x264-SiC

    [​IMG]

    There Be Dragons (2011)
    Genre: Biography | Drama
    Directed By: Roland Joffé
    Cast: Charlie Cox, Wes Bentley, Dougray Scott
    MPAA Rate: PG-13
    Storyline: Arising out of the horror of the Spanish Civil War, a candidate for canonization is investigated by a journalist who discovers his own estranged father had a deep, dark and devastating connection to the saint's life.


    Code:
        IMDB Rate: 5.9
        IMDB: http://www.imdb.com/title/tt1316616/
    MediaInfo:
    General
    Complete name : There.Be.Dragons.2011.BRRip.x264-SiC.mp4
    Format : MPEG-4
    Format profile : Base Media
    Codec ID : isom
    File size : 1.30 GiB
    Duration : 2h 1mn
    Overall bit rate : 1 530 Kbps
    Encoded date : UTC 2011-08-03 00:02:23
    Tagged date : UTC 2011-08-03 00:02:23

    Video
    ID : 1
    Format : AVC
    Format/Info : Advanced Video Codec
    Format profile : High@L3.0
    Format settings, CABAC : Yes
    Format settings, ReFrames : 4 frames
    Codec ID : avc1
    Codec ID/Info : Advanced Video Coding
    Duration : 2h 1mn
    Bit rate mode : Variable
    Bit rate : 1 145 Kbps
    Maximum bit rate : 5 564 Kbps
    Width : 720 pixels
    Height : 304 pixels
    Display aspect ratio : 2.35:1
    Frame rate mode : Constant
    Frame rate : 24.000 fps
    Resolution : 8 bits
    Colorimetry : 4:2:0
    Scan type : Progressive
    Bits/(Pixel*Frame) : 0.218
    Stream size : 997 MiB (75%)
    Title : There.Be.Dragons.2011.BRRip.x264-SiC
    Encoded date : UTC 2011-08-03 00:02:23
    Tagged date : UTC 2011-08-03 00:02:54

    Audio
    ID : 2
    Format : AAC
    Format/Info : Advanced Audio Codec
    Format version : Version 4
    Format profile : LC
    Format settings, SBR : No
    Codec ID : 40
    Duration : 2h 1mn
    Bit rate mode : Variable
    Bit rate : 384 Kbps
    Maximum bit rate : 455 Kbps
    Channel(s) : 6 channels
    Channel positions : Front: L C R, Side: L R, LFE
    Sampling rate : 48.0 KHz
    Stream size : 332 MiB (25%)
    Title : 2ch English
    Language : English
    Encoded date : UTC 2011-08-03 00:02:43
    Tagged date : UTC 2011-08-03 00:02:54



    DOWNLOAD
    Code:
    http://www.rarefile.net/n1ec5okac1o0/There.Be.Dragons.2011.BRRip.x264-SiC.RMTeam.mp4.part1.rar
    http://www.rarefile.net/nks5vrlf7wah/There.Be.Dragons.2011.BRRip.x264-SiC.RMTeam.mp4.part2.rar
    http://www.rarefile.net/vqinssj8iau8/There.Be.Dragons.2011.BRRip.x264-SiC.RMTeam.mp4.part3.rar
    http://www.rarefile.net/ry5iw0qin85b/There.Be.Dragons.2011.BRRip.x264-SiC.RMTeam.mp4.part4.rar
    http://www.rarefile.net/qb6rxan7pvwn/There.Be.Dragons.2011.BRRip.x264-SiC.RMTeam.mp4.part5.rar
    http://www.rarefile.net/ztbk812eetyp/There.Be.Dragons.2011.BRRip.x264-SiC.RMTeam.mp4.part6.rar
    http://www.rarefile.net/waseza3h4i90/There.Be.Dragons.2011.BRRip.x264-SiC.RMTeam.mp4.part7.rar

    [​IMG]

    [​IMG]

    [​IMG]
     

Share This Page