Tooth Fairy 2 2012 DVDRip XviD AC3 CrEwSaDe

Discussion in '2012 Movies' started by RMTeam, Mar 4, 2012.

  1. RMTeam

    RMTeam Active Member

    Joined:
    Feb 18, 2012
    Messages:
    4,485
    Likes Received:
    2
    Trophy Points:
    38
    Tooth Fairy 2 2012 DVDRip XviD AC3 CrEwSaDe

    [​IMG]

    Tooth Fairy 2 (2012)
    Genre: Comedy | Family
    Directed By: Alex Zamm
    Cast: Larry the Cable Guy, David Mackey, Erin Beute
    MPAA Rate: PG

    Code:
    IMDB: http://www.imdb.com/title/tt1935929/

    Release Brought to you by CrEwSaDe


    ******************************************************************************************************

    **Tooth.Fairy.2.2012.DVDRip.XviD.AC3.CrEwSaDe**

    ******************************************************************************************************




    Encoder ..........: DarthMidal
    Video Codec.......: XviD
    Video Bitrate.....: 945 Kbps
    Audio Codec.......: AC-3
    Audio Bitrate.....: 128 kbps
    Resolution........: 720X384
    Runtime...........: 1h 30mn
    Release Date......: 04/03/12
    Theatre Date......: 12 March 2012 (UK)
    Language..........: English
    Subtitles.........: N/A
    IMDB Rating.......: N/A
    IMDb URL..........: IMDb - Tooth Fairy 2 (Video 2012)



    General
    Complete name : E:\Tooth.Fairy.2.2012.DVDRip.XviD.AC3.CrEwSaDe\Tooth.Fairy.2.2012.DVDRip.XviD.AC3.CrEwSaDe.avi
    Format : AVI
    Format/Info : Audio Video Interleave
    File size : 698 MiB
    Duration : 1h 30mn
    Overall bit rate : 1 081 Kbps



    Video
    ID : 0
    Format : MPEG-4 Visual
    Format profile : Advanced Simple@L5
    Format settings, BVOP : 2
    Format settings, QPel : No
    Format settings, GMC : No warppoints
    Format settings, Matrix : Default (H.263)
    Codec ID : XVID
    Codec ID/Hint : XviD
    Duration : 1h 30mn
    Bit rate : 945 Kbps
    Width : 720 pixels
    Height : 384 pixels
    Display aspect ratio : 1.875
    Frame rate : 23.976 fps
    Color space : YUV
    Chroma subsampling : 4:2:0
    Bit depth : 8 bits
    Scan type : Progressive
    Compression mode : Lossy
    Bits/(Pixel*Frame) : 0.143
    Stream size : 610 MiB (87%)
    Writing library : XviD 1.2.1 (UTC 2008-12-04)


    Audio
    ID : 1
    Format : AC-3
    Format/Info : Audio Coding 3
    Mode extension : CM (complete main)
    Codec ID : 2000
    Duration : 1h 30mn
    Bit rate mode : Constant
    Bit rate : 128 Kbps
    Channel(s) : 6 channels
    Channel positions : Front: L C R, Side: L R, LFE
    Sampling rate : 48.0 KHz
    Bit depth : 16 bits
    Compression mode : Lossy
    Stream size : 82.7 MiB (12%)
    Alignment : Aligned on interleaves
    Interleave, duration : 64 ms (1.53 video frames)
    Interleave, preload duration : 192 ms
    Title : VTS_01_1 T80 3_2ch 448Kbps DELAY 0ms







    SOURCES: Tooth.Fairy.2.2012.NTSC.DVDR-KART3LDVD Thank you

    VIDEO: Tooth.Fairy.2.2012.NTSC.DVDR-KART3LDVD Thank you
    AUDIO: Tooth.Fairy.2.2012.NTSC.DVDR-KART3LDVD Thank you

    Plot:
    Centers on Larry Guthrie, who loses his first love to the town hot shot and decides to win her back by volunteering with the children at her after-school program.


    Screens:


    Youtube Trailer:




    Sample Included


    Notes:
    Please enjoy courtesy of CrEwSaDe


    Greets:
    All our home site staff for getting us such great sources also our friends
    FLAWL3SS,J08,GateKeeper,DTRG,BHRG,SAFCuk009,TaRiQ786,BBnRG,ATLaS,THC,TRiNiTY,FZWRG,CARiZMA,REQU3EST,All CrEwSaDe Encoders Past and present, and all other p2pgroups past That made all this possible and the present ones that continue to work so hard at what we do


    CrEwSaDe are currently Looking for unreleased DVD's,Screeners,New Music Releases,R5's,Audio,Cams,
    Silvers,syncers,cammers and Any Other Good Sources You May Have To Offer
    Contact us @ CrEwSaDe@hushmail.com


    DOWNLOAD
    Code:
    http://www.rarefile.net/swl5ykgvzkrs/tf.2.2012.dx.a3.c.u23469.RMTeam.rar

    [​IMG]

    [​IMG]

    [​IMG]
     

Share This Page