Tooth Fairy 2 2012 DVDRip XviD DTRG

Discussion in '2012 Movies' started by RMTeam, Mar 4, 2012.

  1. RMTeam

    RMTeam Active Member

    Joined:
    Feb 18, 2012
    Messages:
    4,485
    Likes Received:
    2
    Trophy Points:
    38
    Tooth Fairy 2 2012 DVDRip XviD DTRG

    [​IMG]

    Tooth Fairy 2 (2012)
    Genre: Comedy | Family
    Directed By: Alex Zamm
    Cast: Larry the Cable Guy, David Mackey, Erin Beute
    MPAA Rate: PG

    Code:
    IMDB: http://www.imdb.com/title/tt1935929/
    Format : AVI
    Format/Info : Audio Video Interleave
    File size : 1.36 GiB
    Duration : 1h 30mn
    Overall bit rate : 2 153 Kbps
    Writing library : VirtualDub build 32842/release

    Video
    ID : 0
    Format : MPEG-4 Visual
    Format profile : Advanced Simple@L5
    Format settings, BVOP : 2
    Format settings, QPel : No
    Format settings, GMC : No warppoints
    Format settings, Matrix : Default (H.263)
    Muxing mode : Packed bitstream
    Codec ID : XVID
    Codec ID/Hint : XviD
    Duration : 1h 30mn
    Bit rate : 1 694 Kbps
    Width : 720 pixels
    Height : 400 pixels
    Display aspect ratio : 16:9
    Frame rate : 29.970 fps
    Color space : YUV
    Chroma subsampling : 4:2:0
    Bit depth : 8 bits
    Scan type : Progressive
    Compression mode : Lossy
    Bits/(Pixel*Frame) : 0.196
    Stream size : 1.07 GiB (79%)
    Writing library : XviD 64

    Audio
    ID : 1
    Format : AC-3
    Format/Info : Audio Coding 3
    Mode extension : CM (complete main)
    Codec ID : 2000
    Duration : 1h 30mn
    Bit rate mode : Constant
    Bit rate : 448 Kbps
    Channel(s) : 6 channels
    Channel positions : Front: L C R, Side: L R, LFE
    Sampling rate : 48.0 KHz
    Bit depth : 16 bits
    Compression mode : Lossy
    Stream size : 289 MiB (21%)
    Alignment : Aligned on interleaves
    Interleave, duration : 33 ms (1.00 video frame)
    Interleave, preload duration : 512 ms



    DOWNLOAD
    Code:
    http://www.rarefile.net/y75af88vyhld/t.f.2.2012.d.x.d.u23412.RMTeam.part1.rar
    http://www.rarefile.net/xzed9q28n8vv/t.f.2.2012.d.x.d.u23412.RMTeam.part2.rar
    http://www.rarefile.net/05artczompui/t.f.2.2012.d.x.d.u23412.RMTeam.part3.rar
    [​IMG]

    [​IMG]

    [​IMG]
     

Share This Page