Toy Story 3 TS XViD – IMAGiNE

Discussion in 'Archive' started by husajn11, Jun 28, 2010.

  1. husajn11

    husajn11 Guest

    Toy Story 3 TS XViD – IMAGiNE
    [​IMG]


    .NFO:

    Code:
     *********** ****    ****      ***      ******** *********** ****    *** **********
              *+*     +*+*+* *+*+*+   *+* *+*   *+*    *+*    *+*     *+*+*   *+* *+*        
              +*+     +*+ +*+*+ +*+  +*+   +*+  +*+           +*+     *+*+*+  +*+ +*+        
              +$+     +$+  +*+  +$+ +$++*++$++* *$*           +$+     +$+ +*+ +$+ +$++*++$  
              +$+     +$+       +$+ +$+     +$+ +$+   +$+$    +$+     +$+  +$+$+$ +$+        
              $+$     $+$       $+$ $+$     $+$ $+$    $+$    $+$     $+$   $+$+$ $+$        
          $$$$$$$$$$$ $$$       $$$ $$$     $$$  $$$$$$$$ $$$$$$$$$$$ $$$    $$$$ $$$$$$$$$$    
                                                   
    
    
    
                              Another Fine Release Brought to you from - IMAGiNE                  
                                                   
    
    ********************************************************************************************************************                                
                                          Toy Story 3 TS XViD - IMAGiNE
    ********************************************************************************************************************
    
    Ripper ...........: IMAGiNE                                        IMDB Rating.......:9.5/10                            
    Video Codec.......: XVID                                        Release Date......:21/06/10
    Audio Codec.......:AC3                                           Theatre Date......:18/06/10
    Audio Bitrate.....:128                                              Runtime.......:1h 34mn
    Subtitles.........:NIL                                                 Language..........:ENGLISH
    Resolution...... 704 x 384                                     IMDb URL..........:http://www.imdb.com/title/tt0435761/
    
    
    DETAILS:
    
    Video
    Format                           : MPEG-4 Visual
    Format profile                   : Streaming Video@L1
    Format settings, BVOP            : Yes
    Format settings, QPel            : No
    Format settings, GMC             : No warppoints
    Format settings, Matrix          : Default
    Muxing mode                      : Packed bitstream
    Codec ID                         : XVID
    Codec ID/Hint                    : XviD
    Duration                         : 1h 34mn
    Bit rate                         : 1 960 Kbps
    Width                            : 704 pixels
    Height                           : 384 pixels
    Display aspect ratio             : 16/9
    Frame rate                       : 25.000 fps
    Resolution                       : 24 bits
    Colorimetry                      : 4:2:0
    Scan type                        : Progressive
    Bits/(Pixel*Frame)               : 0.290
    Stream size                      : 1.29 GiB (93%)
    Writing library                  : XviD 50
    
    Audio
    Format                           : AC-3
    Format/Info                      : Audio Coding 3
    Codec ID                         : 2000
    Duration                         : 1h 34mn
    Bit rate mode                    : Constant
    Bit rate                         : 128 Kbps
    Channel(s)                       : 2 channels
    Channel positions                : L R
    Sampling rate                    : 48.0 KHz
    Stream size                      : 86.2 MiB (6%)
    Alignment                        : Aligned on interleaves
    Interleave, duration             : 40 ms (1.00 video frame)
    Interleave, preload duration     : 512 ms
    
    
    
    NOTES:
    
    IMAGiNE bringing you another release.....Toy story 3 TS
    
    Well first off thanks to prism for the audio and Relizlab for the video
    Now heres our xvid like promised......same filtering done as our dvdr,however we have added some more
    deflicker on this,to try and get rid alot of the flicker.
    Still has a pulse,but looks much better in our opinion now (then our cam video).
    We have added two samples of where we think is the worse part of the video for the flicker,so you can see how
    bad it gets ;-)
    Anyway heres release 99895 of toy story 3
    
    Enjoy 

    Screens:

    [​IMG]
    [​IMG]
    [​IMG]
    [​IMG]




    SAMPLE - DOWNLOAD LINK:
    Code:
    http://rapidshare.com/files/401500442/Toy_Story_3_TS_XViD_-_SAMPLE_V2.avi

    DOWNLOAD LINK'S - 200MB PART'S:
    Code:
    
    http://rapidshare.com/files/403545026/TS3.TS.XViD.IMAGiNE.part1.rar
    http://rapidshare.com/files/403545488/TS3.TS.XViD.IMAGiNE.part2.rar
    http://rapidshare.com/files/403545020/TS3.TS.XViD.IMAGiNE.part3.rar
    http://rapidshare.com/files/403545151/TS3.TS.XViD.IMAGiNE.part4.rar
    http://rapidshare.com/files/403545129/TS3.TS.XViD.IMAGiNE.part5.rar
    http://rapidshare.com/files/403545544/TS3.TS.XViD.IMAGiNE.part6.rar
    http://rapidshare.com/files/403545125/TS3.TS.XViD.IMAGiNE.part7.rar
    http://rapidshare.com/files/403545035/TS3.TS.XViD.IMAGiNE.part8.rar
    
    If you download this movie using the above links, please take a few seconds to reply a "thanks".
    



    [​IMG]
     
  2. chimate

    chimate Guest

    wow..............thanks
     
  3. trukkerz

    trukkerz Guest

    thanks mate :)
     
  4. Kaoticone

    Kaoticone Guest

    Thanks.
     
  5. tntintl1

    tntintl1 Guest

    thanksssss.
     
  6. choheocon

    choheocon Guest

    thanks
     
  7. ralf1947

    ralf1947 Guest

    thanks
     
  8. houseman

    houseman Guest

    Thanks, Downloading Now
     
  9. dialpisse

    dialpisse Guest

    an i thank you
     
  10. Kaoticone

    Kaoticone Guest

    it says not a rar archive when I try to extract.
     
  11. jason2day

    jason2day Guest

    great, thanks
     
  12. Bluefactory

    Bluefactory Guest

  13. flyers16

    flyers16 Guest

    Thanks!!!!!!!!!!!!!!!!
     
  14. pallavino

    pallavino New Member

    Joined:
    Mar 30, 2014
    Messages:
    0
    Likes Received:
    0
    Trophy Points:
    0
  15. hwnz808

    hwnz808 Guest

    thanks for RS links
     
  16. jesus-lovers

    jesus-lovers Guest

    thanks!!!!!!!!!!!!!!!
     
  17. basti24

    basti24 Guest

    Thanks very much bro.... will take a chance. were you able to extract the file?????
     
  18. zeka1983

    zeka1983 Guest

    thks...
     
  19. tlamothe01

    tlamothe01 Guest

    thanks!
     

Share This Page