Trespass 2011 DVDRip XviD AC3-26K

Discussion in '2011 Movies' started by RMTeam, Mar 3, 2012.

  1. RMTeam

    RMTeam Active Member

    Joined:
    Feb 18, 2012
    Messages:
    4,485
    Likes Received:
    2
    Trophy Points:
    38
    Trespass 2011 DVDRip XviD AC3-26K

    [​IMG]

    Trespass (2011)
    Genre: Crime | Drama | Thriller
    Directed By: Joel Schumacher
    Cast: Nicolas Cage, Nicole Kidman, Ben Mendelsohn
    MPAA Rate: R
    Storyline: As they're held for ransom, a husband and wife's predicament grows more dire amid the discovery of betrayal and deception.


    Code:
        IMDB Rate: 5.3
        IMDB: http://www.imdb.com/title/tt1674784/
    Sources:
    DVDR-LEGEND THNXS
    SUBS INCLUDED...
    Notes:
    ENJOY

    Greetz:
    Xtreme Encode|FYA|ILLUMANTI|CM8|RX|VISION|HDSCENE|NIGHTMAREZ|xTriLL|DTRG|CRYS|REMIXHD|BIDA|RX|REFILL|INSPiRAL|SIC|ZOMBIESZ|HOPE|Anonymous|GooN
    To all the people who have helped me you know who you are

    Anything to offer email us @: 26k@hushmail.me

    Video
    ID : 0
    Format : MPEG-4 Visual
    Format profile : Advanced Simple@L5
    Format settings, BVOP : 2
    Format settings, QPel : No
    Format settings, GMC : No warppoints
    Format settings, Matrix : Default (H.263)
    Muxing mode : Packed bitstream
    Codec ID : XVID
    Codec ID/Hint : XviD
    Duration : 1h 26mn
    Bit rate : 1 501 Kbps
    Width : 720 pixels
    Height : 300 pixels
    Display aspect ratio : 2.40:1
    Frame rate : 25.000 fps
    Color space : YUV
    Chroma subsampling : 4:2:0
    Bit depth : 8 bits
    Scan type : Progressive
    Compression mode : Lossy
    Bits/(Pixel*Frame) : 0.278
    Stream size : 934 MiB (76%)
    Writing library : XviD 1.2.1 (UTC 2008-12-04)

    Audio
    ID : 1
    Format : AC-3
    Format/Info : Audio Coding 3
    Mode extension : CM (complete main)
    Codec ID : 2000
    Duration : 1h 26mn
    Bit rate mode : Constant
    Bit rate : 448 Kbps
    Channel(s) : 6 channels
    Channel positions : Front: L C R, Side: L R, LFE
    Sampling rate : 48.0 KHz
    Bit depth : 16 bits
    Compression mode : Lossy
    Stream size : 279 MiB (23%)
    Alignment : Aligned on interleaves
    Interleave, duration : 32 ms (0.80 video frame)


    DOWNLOAD
    Code:
    http://www.rarefile.net/kgnblyzpp9el/t.2011.d.x.a3-26k.u23298.RMTeam.part1.rar
    http://www.rarefile.net/6pu7szw1c4wc/t.2011.d.x.a3-26k.u23298.RMTeam.part2.rar
    http://www.rarefile.net/g6g3dlo3643n/t.2011.d.x.a3-26k.u23298.RMTeam.part3.rar

    [​IMG]

    [​IMG]

    [​IMG]
     

Share This Page