Umphrey's McGee: Live from the Tabernacle, Atlanta - Night 1-4 (2012) Blu-ray 1080p

Discussion in 'Music Videos' started by Sheriff, Aug 10, 2014.

  1. Sheriff

    Sheriff Administrator Staff Member

    Joined:
    Feb 18, 2012
    Messages:
    42,290
    Likes Received:
    1,424
    Trophy Points:
    113
    [​IMG]


    Umphrey's McGee: Live from the Tabernacle, Atlanta, GA 12/28/12 - Night 1 of 4 (2012) Blu-ray 1080p AVC DD5.1


    Code:
    Set 1:
    Auf Wiedersehen >
    Professor Wormbog >
    Cemetery Walk
    Slacker
    Eat
    Miami Virtue >
    Walletsworth >
    Cemetery Walk II
    Set 2:
    Phil's Farm >
    Puppet String >
    Phil's Farm
    Deeper >
    The Floor
    Lenny
    Plunger >
    Resolution >
    Hollywood Nights
    Encore:
    Prowler >
    Puppet String
    Code:
    DISC INFO:
    
    Disc Title:     Umphrey's 2012.12.28
    Disc Size:      19 283 295 768 bytes
    Protection:     AACS
    BD-Java:        No
    BDInfo:         0.5.8
    
    PLAYLIST REPORT:
    
    Name:                   00001.MPLS
    Length:                 2:43:34.721 (h:m:s.ms)
    Size:                   17 570 463 744 bytes
    Total Bitrate:          14,32 Mbps
    
    VIDEO:
    
    Codec                   Bitrate             Description    
    -----                   -------             -----------    
    MPEG-4 AVC Video        12965 kbps          1080p / 23,976 fps / 16:9 / High Profile 4.1
    
    AUDIO:
    
    Codec                           Language        Bitrate         Description    
    -----                           --------        -------         -----------    
    Dolby Digital Audio             English         224 kbps        2.0 / 48 kHz / 224 kbps
    Dolby Digital Audio             English         448 kbps        5.1 / 48 kHz / 448 kbps / DN -4dB
    
    FILES:
    
    Name            Time In         Length          Size            Total Bitrate  
    ----            -------         ------          ----            -------------  
    00001.M2TS      0:00:00.000     2:43:34.679     17 570 267 136  14 322          
    00002.M2TS      2:43:34.679     0:00:00.041     196 608         37 709

    Umphrey's McGee: Live from the Tabernacle, Atlanta, GA 12/29/12 - Night 2 of 4 (2012) Blu-ray 1080p AVC DD5.1


    Code:
    Umphrey's McGee
    Saturday, December 29th 2012
    The Tabernacle
    Atlanta, GA
    
    Set 1:
    Drink My Drank >
    Der Bluten Kat >
    Kula >
    Hangover >
    Loose Ends >
    Der Bluten Kat
    Example 1
    Set 2:
    1348 >
    Day Nurse >
    Syncopated Strangers
    The Linear >
    Conduit
    Wish
    August >
    1348
    Encore:
    Divisions
    Code:
    DISC INFO:
    
    Disc Title:     Umphrey's 2012.12.29
    Disc Size:      18 641 765 672 bytes
    Protection:     AACS
    BD-Java:        No
    BDInfo:         0.5.8
    
    PLAYLIST REPORT:
    
    Name:                   00002.MPLS
    Length:                 2:38:28.957 (h:m:s.ms)
    Size:                   17 019 124 416 bytes
    Total Bitrate:          14,32 Mbps
    
    VIDEO:
    
    Codec                   Bitrate             Description    
    -----                   -------             -----------    
    MPEG-4 AVC Video        12962 kbps          1080p / 23,976 fps / 16:9 / High Profile 4.1
    
    AUDIO:
    
    Codec                           Language        Bitrate         Description    
    -----                           --------        -------         -----------    
    Dolby Digital Audio             English         224 kbps        2.0 / 48 kHz / 224 kbps
    Dolby Digital Audio             English         448 kbps        5.1 / 48 kHz / 448 kbps / DN -4dB
    
    FILES:
    
    Name            Time In         Length          Size            Total Bitrate  
    ----            -------         ------          ----            -------------  
    00002.M2TS      0:00:00.000     2:37:03.455     16 983 341 760  14 418          
    00003.M2TS      2:37:03.455     0:01:25.502     35 782 656      3 348

    Umphrey's McGee: Live from the Tabernacle, Atlanta, GA 12/30/12 - Night 3 of 4 (2012) Blu-ray 1080p AVC DD5.1


    Code:
    Umphrey's McGee
    Sunday, December 30th 2012
    The Tabernacle
    Atlanta, GA
    
    Set 1:
    Depth Charge >
    JaJunk >
    Roulette
    Sociable Jimmy >
    Sweetness >
    Uncle Wally
    Bad Poker
    Water
    Set 2:
    Preamble >
    Bright Lights, Big City >
    Cocaine >
    Bright Lights, Big City
    Mantis >
    Domino Theory
    Nemo >
    Kabump >
    Nemo
    Night Nurse >
    Mantis
    Encore:
    In The Kitchen >
    Cut the Cable >
    In The Kitchen
    Code:
    DISC INFO:
    
    Disc Title:     Umphrey's 12.31
    Disc Size:      23 433 151 592 bytes
    Protection:     AACS
    BD-Java:        No
    BDInfo:         0.5.8
    
    PLAYLIST REPORT:
    
    Name:                   00002.MPLS
    Length:                 3:18:53.755 (h:m:s.ms)
    Size:                   21 395 126 016 bytes
    Total Bitrate:          14,34 Mbps
    
    VIDEO:
    
    Codec                   Bitrate             Description    
    -----                   -------             -----------    
    MPEG-4 AVC Video        12985 kbps          1080p / 23,976 fps / 16:9 / High Profile 4.1
    
    AUDIO:
    
    Codec                           Language        Bitrate         Description    
    -----                           --------        -------         -----------    
    Dolby Digital Audio             English         224 kbps        2.0 / 48 kHz / 224 kbps
    Dolby Digital Audio             English         448 kbps        5.1 / 48 kHz / 448 kbps / DN -4dB
    
    FILES:
    
    Name            Time In         Length          Size            Total Bitrate  
    ----            -------         ------          ----            -------------  
    00002.M2TS      0:00:00.000     3:17:28.127     21 357 702 528  14 421          
    00003.M2TS      3:17:28.127     0:00:00.041     196 608         37 709          
    00004.M2TS      3:17:28.169     0:01:25.585     37 226 880      3 478

    Umphrey's McGee: Live from the Tabernacle, Atlanta, GA 12/31/12 - Night 4 of 4 (2012) Blu-ray 1080p AVC DD5.1


    Code:
    Umphrey's McGee
    Saturday, December 29th 2012
    The Tabernacle
    Atlanta, GA
    
    Set 1:
    Leave Me Las Vegas >
    40's Theme
    Crucial Taunt
    2x2
    Mail Package
    Jessica
    Ringo >
    JaJunk
    Set 2:
    Hourglass
    Much Obliged
    White Pickle >
    Higgins
    Hajimemashite
    Dance Hall Days
    Comma Later
    Set 3:
    The Triple Wide >
    Auld Lang Syne
    Partyin' Peeps
    Glory >
    Mulche's Odyssey
    Gulf Stream
    Andy's Last Beer
    Wife Soup
    Encore:
    Women Wine and Song
    Code:
    DISC INFO:
    
    Disc Title:     Umphrey's 12.31
    Disc Size:      23 433 151 592 bytes
    Protection:     AACS
    BD-Java:        No
    BDInfo:         0.5.8
    
    PLAYLIST REPORT:
    
    Name:                   00002.MPLS
    Length:                 3:18:53.755 (h:m:s.ms)
    Size:                   21 395 126 016 bytes
    Total Bitrate:          14,34 Mbps
    
    VIDEO:
    
    Codec                   Bitrate             Description    
    -----                   -------             -----------    
    MPEG-4 AVC Video        12985 kbps          1080p / 23,976 fps / 16:9 / High Profile 4.1
    
    AUDIO:
    
    Codec                           Language        Bitrate         Description    
    -----                           --------        -------         -----------    
    Dolby Digital Audio             English         224 kbps        2.0 / 48 kHz / 224 kbps
    Dolby Digital Audio             English         448 kbps        5.1 / 48 kHz / 448 kbps / DN -4dB
    
    FILES:
    
    Name            Time In         Length          Size            Total Bitrate  
    ----            -------         ------          ----            -------------  
    00002.M2TS      0:00:00.000     3:17:28.127     21 357 702 528  14 421          
    00003.M2TS      3:17:28.127     0:00:00.041     196 608         37 709          
    00004.M2TS      3:17:28.169     0:01:25.585     37 226 880      3 478

    [​IMG]
    (Buy Premium account before downloading For Very Fast download Speed
    If you Like My posts Please help me by getting Premium account from my download Links.)


    Code:
    http://www.redbunker.net/imsnovfjog2h/UM_2012.12.28_The_Tabernacle,_Atlanta,_GA_[BD25].part01.rar.html
    http://www.redbunker.net/5urq9sitb6br/UM_2012.12.28_The_Tabernacle,_Atlanta,_GA_[BD25].part02.rar.html
    http://www.redbunker.net/74pd9eabjhyr/UM_2012.12.28_The_Tabernacle,_Atlanta,_GA_[BD25].part03.rar.html
    http://www.redbunker.net/tr6exfm6fdj2/UM_2012.12.28_The_Tabernacle,_Atlanta,_GA_[BD25].part04.rar.html
    http://www.redbunker.net/t1173g6y7ybd/UM_2012.12.28_The_Tabernacle,_Atlanta,_GA_[BD25].part05.rar.html
    http://www.redbunker.net/71l3917ayoz7/UM_2012.12.28_The_Tabernacle,_Atlanta,_GA_[BD25].part06.rar.html
    http://www.redbunker.net/6foqr9wuefvu/UM_2012.12.28_The_Tabernacle,_Atlanta,_GA_[BD25].part07.rar.html
    http://www.redbunker.net/r22m1m0uyl45/UM_2012.12.28_The_Tabernacle,_Atlanta,_GA_[BD25].part08.rar.html
    http://www.redbunker.net/m8cb9smvaogf/UM_2012.12.28_The_Tabernacle,_Atlanta,_GA_[BD25].part09.rar.html
    http://www.redbunker.net/n7vik6wdyjnj/UM_2012.12.28_The_Tabernacle,_Atlanta,_GA_[BD25].part10.rar.html
    
    http://www.redbunker.net/6v3dbakb1czk/UM_2012.12.29_The_Tabernacle,_Atlanta,_GA_[BD25].part01.rar.html
    http://www.redbunker.net/veslk87b48z6/UM_2012.12.29_The_Tabernacle,_Atlanta,_GA_[BD25].part02.rar.html
    http://www.redbunker.net/rglfhc8v7ouz/UM_2012.12.29_The_Tabernacle,_Atlanta,_GA_[BD25].part03.rar.html
    http://www.redbunker.net/dc8kj2w4aikr/UM_2012.12.29_The_Tabernacle,_Atlanta,_GA_[BD25].part04.rar.html
    http://www.redbunker.net/lu0lw2mp75pl/UM_2012.12.29_The_Tabernacle,_Atlanta,_GA_[BD25].part05.rar.html
    http://www.redbunker.net/o4rdqzc7pcpm/UM_2012.12.29_The_Tabernacle,_Atlanta,_GA_[BD25].part06.rar.html
    http://www.redbunker.net/2iav4hel7rxv/UM_2012.12.29_The_Tabernacle,_Atlanta,_GA_[BD25].part07.rar.html
    http://www.redbunker.net/mxsv04r53kaq/UM_2012.12.29_The_Tabernacle,_Atlanta,_GA_[BD25].part08.rar.html
    http://www.redbunker.net/63ogb37ls2pv/UM_2012.12.29_The_Tabernacle,_Atlanta,_GA_[BD25].part09.rar.html
    http://www.redbunker.net/51aeskpf6nu9/UM_2012.12.29_The_Tabernacle,_Atlanta,_GA_[BD25].part10.rar.html
    http://www.redbunker.net/gj6wcart9cpe/UM_2012.12.29_The_Tabernacle,_Atlanta,_GA_[BD25].part11.rar.html
    http://www.redbunker.net/7ykrb0v4xkbs/UM_2012.12.29_The_Tabernacle,_Atlanta,_GA_[BD25].part12.rar.html
    http://www.redbunker.net/4vqa3tuhcfnw/UM_2012.12.29_The_Tabernacle,_Atlanta,_GA_[BD25].part13.rar.html
    
    http://www.redbunker.net/3cbihm18cmki/UM_2012.12.30_The_Tabernacle,_Atlanta,_GA_[BD25].part01.rar.html
    http://www.redbunker.net/9hvctjcphgu8/UM_2012.12.30_The_Tabernacle,_Atlanta,_GA_[BD25].part02.rar.html
    http://www.redbunker.net/fbp7h3cgupob/UM_2012.12.30_The_Tabernacle,_Atlanta,_GA_[BD25].part03.rar.html
    http://www.redbunker.net/zylezzv96lfu/UM_2012.12.30_The_Tabernacle,_Atlanta,_GA_[BD25].part04.rar.html
    http://www.redbunker.net/bnxwwx35idys/UM_2012.12.30_The_Tabernacle,_Atlanta,_GA_[BD25].part05.rar.html
    http://www.redbunker.net/rhjh5gwbgk3a/UM_2012.12.30_The_Tabernacle,_Atlanta,_GA_[BD25].part06.rar.html
    http://www.redbunker.net/ffmxmqqh13kt/UM_2012.12.30_The_Tabernacle,_Atlanta,_GA_[BD25].part07.rar.html
    http://www.redbunker.net/f5yz3kg5pgo9/UM_2012.12.30_The_Tabernacle,_Atlanta,_GA_[BD25].part08.rar.html
    http://www.redbunker.net/8svca3ooc4d9/UM_2012.12.30_The_Tabernacle,_Atlanta,_GA_[BD25].part09.rar.html
    http://www.redbunker.net/tdlwhkh9xvg4/UM_2012.12.30_The_Tabernacle,_Atlanta,_GA_[BD25].part10.rar.html
    
    http://www.redbunker.net/kla8ukyasyqh/UM_2012.12.31_The_Tabernacle,_Atlanta,_GA_[BD25].part01.rar.html
    http://www.redbunker.net/lsghf424ambx/UM_2012.12.31_The_Tabernacle,_Atlanta,_GA_[BD25].part02.rar.html
    http://www.redbunker.net/sq0r2dw0xjz1/UM_2012.12.31_The_Tabernacle,_Atlanta,_GA_[BD25].part03.rar.html
    http://www.redbunker.net/1a8m6xvnsp6c/UM_2012.12.31_The_Tabernacle,_Atlanta,_GA_[BD25].part04.rar.html
    http://www.redbunker.net/7zrst5wmmpbw/UM_2012.12.31_The_Tabernacle,_Atlanta,_GA_[BD25].part05.rar.html
    http://www.redbunker.net/s31eq4d2m3ri/UM_2012.12.31_The_Tabernacle,_Atlanta,_GA_[BD25].part06.rar.html
    http://www.redbunker.net/ohg065wblupn/UM_2012.12.31_The_Tabernacle,_Atlanta,_GA_[BD25].part07.rar.html
    http://www.redbunker.net/hamkmzktqta5/UM_2012.12.31_The_Tabernacle,_Atlanta,_GA_[BD25].part08.rar.html
    http://www.redbunker.net/4i27se32kd8v/UM_2012.12.31_The_Tabernacle,_Atlanta,_GA_[BD25].part09.rar.html
    http://www.redbunker.net/yhufgusr9n04/UM_2012.12.31_The_Tabernacle,_Atlanta,_GA_[BD25].part10.rar.html
    http://www.redbunker.net/ny6bahfowxbv/UM_2012.12.31_The_Tabernacle,_Atlanta,_GA_[BD25].part11.rar.html
    http://www.redbunker.net/a5nyubkdfw9e/UM_2012.12.31_The_Tabernacle,_Atlanta,_GA_[BD25].part12.rar.html
    http://www.redbunker.net/5ui0bqtyz2iv/UM_2012.12.31_The_Tabernacle,_Atlanta,_GA_[BD25].part13.rar.html
     

Share This Page