NitroFlare Vikings (2013) S01-S02-S03 Season 1-2-3 Uncensored 1080p BluRay AVC DTS-Unknown/ROVERS/CiNEFiLE

Discussion in 'TV Series - Boxset' started by MaCkeNzie, Jan 7, 2016.

  1. MaCkeNzie

    MaCkeNzie Member

    Joined:
    Sep 4, 2014
    Messages:
    110
    Likes Received:
    0
    Trophy Points:
    16
    Gender:
    Male
    Location:
    İzmir
    [​IMG]

    TechInfo:
    Code:
    General
    Complete name  : S01E01 Rites of Passage.mkv
    Format  : Matroska
    Format version  : Version 2
    File size  : 4.08 GiB
    Duration  : 46mn 36s
    Overall bit rate  : 12.5 Mbps
    Writing application  : HandBrake 0.9.9
    Writing library  : libmkv 0.6.5
    
    Video
    ID  : 1
    Format  : AVC
    Format/Info  : Advanced Video Codec
    Format profile  : High@L4
    Format settings, CABAC  : Yes
    Format settings, ReFrames  : 4 frames
    Codec ID  : V_MPEG4/ISO/AVC
    Duration  : 46mn 36s
    Bit rate  : 11.0 Mbps
    Width  : 1 920 pixels
    Height  : 1 080 pixels
    Display aspect ratio  : 16:9
    Frame rate mode  : Constant
    Frame rate  : 23.976 (24000/1001) fps
    Color space  : YUV
    Chroma subsampling  : 4:2:0
    Bit depth  : 8 bits
    Scan type  : Progressive
    Bits/(Pixel*Frame)  : 0.221
    Stream size  : 3.50 GiB (86%)
    Writing library  : x264 core 130 r2273 b3065e6
    Encoding settings  : cabac=1 / ref=2 / deblock=1:-1:-1 / analyse=0x3:0x113 / me=hex / subme=6 / psy=1 / psy_rd=1.00:0.15 / mixed_ref=1 / me_range=16 / chroma_me=1 / trellis=1 / 8x8dct=1 / cqm=0 / deadzone=21,11 / fast_pskip=1 / chroma_qp_offset=-3 / threads=12 / lookahead_threads=2 / sliced_threads=0 / nr=0 / decimate=1 / interlaced=0 / bluray_compat=0 / constrained_intra=0 / bframes=3 / b_pyramid=2 / b_adapt=1 / b_bias=0 / direct=1 / weightb=1 / open_gop=0 / weightp=1 / keyint=240 / keyint_min=24 / scenecut=40 / intra_refresh=0 / rc_lookahead=30 / rc=2pass / mbtree=1 / bitrate=11000 / ratetol=1.0 / qcomp=0.60 / qpmin=0 / qpmax=69 / qpstep=4 / cplxblur=20.0 / qblur=0.5 / ip_ratio=1.40 / aq=1:1.00
    Language  : English
    Default  : Yes
    Forced  : No
    Color range  : Limited
    Color primaries  : BT.709
    Transfer characteristics  : BT.709
    Matrix coefficients  : BT.709
    
    Audio
    ID  : 2
    Format  : DTS
    Format/Info  : Digital Theater Systems
    Mode  : 16
    Format settings, Endianness  : Big
    Codec ID  : A_DTS
    Duration  : 46mn 36s
    Bit rate mode  : Constant
    Bit rate  : 1 509 Kbps
    Channel(s)  : 6 channels
    Channel positions  : Front: L C R, Side: L R, LFE
    Sampling rate  : 48.0 KHz
    Frame rate  : 93.750 fps (512 spf)
    Bit depth  : 24 bits
    Compression mode  : Lossy
    Stream size  : 503 MiB (12%)
    Default  : Yes
    Forced  : No
    Download
    Code:
    http://www.nitroflare.com/view/1344F7BC4F67D5F/Vikings.S01E01.Rites.of.Passage.mkv
    http://www.nitroflare.com/view/D74143CE273CC52/Vikings.S01E02.Wrath.Of.The.Northmen.mkv
    http://www.nitroflare.com/view/531611946C303D8/Vikings.S01E03.Dispossessed.mkv
    http://www.nitroflare.com/view/1AD9B2663F6BD5B/Vikings.S01E04.Trial.mkv
    http://www.nitroflare.com/view/85724F4C95828E1/Vikings.S01E05.Raid.mkv
    http://www.nitroflare.com/view/151FB82B2AF61E5/Vikings.S01E06.Burial.of.the.Dead.mkv
    http://www.nitroflare.com/view/ADCD46C7FB79F04/Vikings.S01E07.A.Kings.Ransom.mkv
    http://www.nitroflare.com/view/E94AAFDC6F53F55/Vikings.S01E08.Sacrifice.mkv
    http://www.nitroflare.com/view/45DBE2630B3B94D/Vikings.S01E09.All.Change.mkv
    http://www.nitroflare.com/view/BF83BA3603120A5/Vikings.s02e01.Brothers.War.1080p.bluray.x264-rovers.mkv
    http://www.nitroflare.com/view/630847D95AE1070/Vikings.s02e02.Invasion.1080p.bluray.x264-rovers.mkv
    http://www.nitroflare.com/view/4808C54817310A3/Vikings.s02e03.Treachery.1080p.bluray.x264-rovers.mkv
    http://www.nitroflare.com/view/FB7DBC37A783E45/Vikings.s02e04.Eye.for.an.Eye.1080p.bluray.x264-rovers.mkv
    http://www.nitroflare.com/view/D66A1AF20C25608/Vikings.s02e05.Answers.in.Blood.1080p.bluray.x264-rovers.mkv
    http://www.nitroflare.com/view/E573ECA603D727A/Vikings.s02e06.Unforgiven.1080p.bluray.x264-rovers.mkv
    http://www.nitroflare.com/view/F1BEAC4B5F17D83/Vikings.s02e07.Blood.Eagle.1080p.bluray.x264-rovers.mkv
    http://www.nitroflare.com/view/E77B47C5CB421CD/Vikings.s02e08.Boneless.1080p.bluray.x264-rovers.mkv
    http://www.nitroflare.com/view/92190ACD60357A3/Vikings.s02e09.The.Choice.1080p.bluray.x264-rovers.mkv
    http://www.nitroflare.com/view/D6C14CFBAB9602A/Vikings.s02e10.The.Lords.Prayer.1080p.bluray.x264-rovers.mkv
    http://www.nitroflare.com/view/AD9C1F62B86B199/Vikings.S03E01.Mercenary.1080p.BluRay.x264-CiNEFiLE.mkv
    http://www.nitroflare.com/view/64F28F01ABAF532/Vikings.S03E02.The.Wanderer.1080p.BluRay.x264-CiNEFiLE.mkv
    http://www.nitroflare.com/view/54FF63E194AC683/Vikings.S03E03.Warriors.Fate.1080p.BluRay.x264-CiNEFiLE.mkv
    http://www.nitroflare.com/view/2F795FEA7506036/Vikings.S03E04.Scarred.1080p.BluRay.x264-CiNEFiLE.mkv
    http://www.nitroflare.com/view/921D264337BE95D/Vikings.S03E05.The.Usurper.1080p.BluRay.x264-CiNEFiLE.mkv
    http://www.nitroflare.com/view/EA00BF239337FA7/Vikings.S03E06.Born.Again.1080p.BluRay.x264-CiNEFiLE.mkv
    http://www.nitroflare.com/view/7CD5EB6124C52BE/Vikings.S03E07.Paris.1080p.BluRay.x264-CiNEFiLE.mkv
    http://www.nitroflare.com/view/9EF98915121155F/Vikings.S03E08.To.the.Gates.1080p.BluRay.x264-CiNEFiLE.mkv
    http://www.nitroflare.com/view/4F4184D0931F380/Vikings.S03E09.Breaking.Point.1080p.BluRay.x264-CiNEFiLE.mkv
    http://www.nitroflare.com/view/9275EA8E2345463/Vikings.S03E10.The.Dead.1080p.BluRay.x264-CiNEFiLE.mkv
     

Share This Page