Whisper (2007) dvdrip Westdenco

Discussion in 'Movies' started by RMTeam, Oct 12, 2012.

  1. RMTeam

    RMTeam Active Member

    Joined:
    Feb 18, 2012
    Messages:
    4,485
    Likes Received:
    2
    Trophy Points:
    38
    Whisper (2007) dvdrip Westdenco

    [​IMG]


    Whisper (2007)
    Genre: Crime | Drama | Horror
    Directed By: Stewart Hendler
    Cast: Jennifer Shirley, Blake Woodruff, Michael Rooker
    Country: USA, Canada
    Original Language: English
    Storyline: Sinister things begin happening to kidnappers who are holding a young boy for ransom in a remote cabin.


    [​IMG]

    [​IMG]

    [​IMG]


    General
    Complete name : Whisper (2007) dvdrip Westdenco
    Format : AVI
    Format/Info : Audio Video Interleave
    File size : 1.37 GiB
    Duration : 1h 34mn
    Overall bit rate : 2 068 Kbps
    Subs : English,Spanish
    Writing application : VirtualDubMod 1.5.4.1 (build 2178/release)
    Writing library : VirtualDubMod build 2178/release

    Video
    ID : 0
    Format : MPEG-4 Visual
    Format profile : Advanced Simple@L5
    Format settings, BVOP : No
    Format settings, QPel : No
    Format settings, GMC : No warppoints
    Format settings, Matrix : Custom
    Codec ID : XVID
    Codec ID/Hint : XviD
    Duration : 1h 34mn
    Bit rate : 1 613 Kbps
    Width : 720 pixels
    Height : 384 pixels
    Display aspect ratio : 1.85:1
    Frame rate : 23.976 fps
    Color space : YUV
    Chroma subsampling : 4:2:0
    Bit depth : 8 bits
    Scan type : Progressive
    Compression mode : Lossy
    Bits/(Pixel*Frame) : 0.243
    Stream size : 1.07 GiB (78%)
    Writing library : XviD 64

    Audio
    ID : 1
    Format : AC-3
    Format/Info : Audio Coding 3
    Mode extension : CM (complete main)
    Format settings, Endianness : Big
    Codec ID : 2000
    Duration : 1h 34mn
    Bit rate mode : Constant
    Bit rate : 448 Kbps
    Channel(s) : 6 channels
    Channel positions : Front: L C R, Side: L R, LFE
    Sampling rate : 48.0 KHz
    Bit depth : 16 bits
    Compression mode : Lossy
    Stream size : 303 MiB (22%)
    Alignment : Split accross interleaves
    Interleave, duration : 96 ms (2.30 video frames)
    Interleave, preload duration : 96 ms
    Language : English



    [​IMG]

    Code:
    http://extabit.com/file/28wbpbrubbwql/w.2007.d.w.u63466.m.part1.rar
    http://extabit.com/file/28wbpbr7w4hjh/w.2007.d.w.u63466.m.part2.rar
    







    .
     

Share This Page