Will (2012) DVDRip XviD BBnRG Single 1 Link Full

Discussion in '2012 Movies' started by RMTeam, Mar 2, 2012.

  1. RMTeam

    RMTeam Active Member

    Joined:
    Feb 18, 2012
    Messages:
    4,485
    Likes Received:
    2
    Trophy Points:
    38
    Will (2012) DVDRip XviD BBnRG

    [​IMG]

    Will (2011)
    Genre: Drama | Family | Sport
    Directed By: Ellen Perry
    Cast: Damian Lewis, Bob Hoskins, Jane March
    Storyline: An orphan journeys across Europe to the 2005 Champions League Final in Istanbul.


    Code:
        IMDB Rate: 5.9
        IMDB: http://www.imdb.com/title/tt1636844/
    Complete name : Will (2012) DVDRip XviD BBnRG.avi
    Format : AVI
    Format/Info : Audio Video Interleave
    File size : 1.37 GiB
    Duration : 1h 37mn
    Overall bit rate : 2 006 Kbps

    Video
    ID : 0
    Format : MPEG-4 Visual
    Format profile : Advanced Simple@L5
    Format settings, BVOP : 2
    Format settings, QPel : No
    Format settings, GMC : No warppoints
    Format settings, Matrix : Default (H.263)
    Codec ID : XVID
    Codec ID/Hint : XviD
    Duration : 1h 37mn
    Bit rate : 1 550 Kbps
    Width : 720 pixels
    Height : 304 pixels
    Display aspect ratio : 2.35:1
    Frame rate : 25.000 fps
    Color space : YUV
    Chroma subsampling : 4:2:0
    Bit depth : 8 bits
    Scan type : Progressive
    Compression mode : Lossy
    Bits/(Pixel*Frame) : 0.283
    Stream size : 1.06 GiB (77%)
    Writing library : XviD 1.2.1 (UTC 2008-12-04)

    Audio
    ID : 1
    Format : AC-3
    Format/Info : Audio Coding 3
    Mode extension : CM (complete main)
    Codec ID : 2000
    Duration : 1h 37mn
    Bit rate mode : Constant
    Bit rate : 448 Kbps
    Channel(s) : 6 channels
    Channel positions : Front: L C R, Side: L R, LFE
    Sampling rate : 48.0 KHz
    Bit depth : 16 bits
    Compression mode : Lossy
    Stream size : 313 MiB (22%)
    Alignment : Aligned on interleaves
    Interleave, duration : 64 ms (1.60 video frames)
    Interleave, preload duration : 192 ms
    Title : Will (2012) BBnRG

    Notes
    Encoder: FridayToker
    Source(s): DVDR - Legend-Rg (thanks)


    DOWNLOAD
    Code:
    http://www.rarefile.net/1g7vgpuh4mc8/w.2012.d.x.b.u23276.RMTeam.part1.rar
    http://www.rarefile.net/8p2cg1rr9ad5/w.2012.d.x.b.u23276.RMTeam.part2.rar
    http://www.rarefile.net/jvgr8ntziknx/w.2012.d.x.b.u23276.RMTeam.part3.rar
    [​IMG]

    [​IMG]

    [​IMG]
     
  2. RMTeam

    RMTeam Active Member

    Joined:
    Feb 18, 2012
    Messages:
    4,485
    Likes Received:
    2
    Trophy Points:
    38
    reupload....

    reupload....
     
  3. heyu300

    heyu300 New Member

    Joined:
    Feb 19, 2012
    Messages:
    7
    Likes Received:
    0
    Trophy Points:
    1
    RS please??
     

Share This Page