Wyatt Earps Revenge (2012) DVDRip XviD BBnRG

Discussion in '2012 Movies' started by RMTeam, Mar 11, 2012.

  1. RMTeam

    RMTeam Active Member

    Joined:
    Feb 18, 2012
    Messages:
    4,485
    Likes Received:
    2
    Trophy Points:
    38
    Wyatt Earps Revenge (2012) DVDRip XviD BBnRG

    [​IMG]

    Wyatt Earp's Revenge (2012)
    Genre: Drama
    Directed By: Michael Feifer
    Cast: Val Kilmer, Shawn Roberts, Matt Dallas
    MPAA Rate: PG-13

    Quote:General Information
    Complete name : Wyatt Earps Revenge (2012) DVDRip XviD BBnRG.avi
    Format : AVI
    Format/Info : Audio Video Interleave
    File size : 1.13 GiB
    Duration : 1h 32mn
    Overall bit rate : 1 742 Kbps

    Video
    ID : 0
    Format : MPEG-4 Visual
    Format profile : Advanced Simple@L5
    Format settings, BVOP : 2
    Format settings, QPel : No
    Format settings, GMC : No warppoints
    Format settings, Matrix : Default (H.263)
    Codec ID : XVID
    Codec ID/Hint : XviD
    Duration : 1h 32mn
    Bit rate : 1 349 Kbps
    Width : 720 pixels
    Height : 400 pixels
    Display aspect ratio : 16:9
    Frame rate : 29.970 fps
    Color space : YUV
    Chroma subsampling : 4:2:0
    Bit depth : 8 bits
    Scan type : Progressive
    Compression mode : Lossy
    Bits/(Pixel*Frame) : 0.156
    Stream size : 894 MiB (77%)
    Writing library : XviD 1.2.1 (UTC 2008-12-04)

    Audio
    ID : 1
    Format : AC-3
    Format/Info : Audio Coding 3
    Mode extension : CM (complete main)
    Codec ID : 2000
    Duration : 1h 32mn
    Bit rate mode : Constant
    Bit rate : 384 Kbps
    Channel(s) : 6 channels
    Channel positions : Front: L C R, Side: L R, LFE
    Sampling rate : 48.0 KHz
    Bit depth : 16 bits
    Compression mode : Lossy
    Stream size : 254 MiB (22%)
    Alignment : Aligned on interleaves
    Interleave, duration : 64 ms (1.92 video frames)
    Interleave, preload duration : 192 ms
    Title : Wyatt Earps Revenge (2012) BBnRG

    Notes
    Encoder: FridayToker
    Source(s): DVDR-TDP (thanks)

    Another fine release from BBnRG

    DOWNLOAD
    Code:
    http://www.rarefile.net/i6t3ruglth50/w.e.r.2012.d.x.b.u24499.RMTeam.part1.rar
    http://www.rarefile.net/3p4rzskvwkto/w.e.r.2012.d.x.b.u24499.RMTeam.part2.rar
    http://www.rarefile.net/qidso68pgwku/w.e.r.2012.d.x.b.u24499.RMTeam.part3.rar
    [​IMG]

    [​IMG]

    [​IMG]
     

Share This Page