Young Adult 2011 720p BluRay X264-DTRG

Discussion in 'BluRay - 720p to 1080p & DvdR' started by RMTeam, Mar 2, 2012.

  1. RMTeam

    RMTeam Active Member

    Joined:
    Feb 18, 2012
    Messages:
    4,485
    Likes Received:
    2
    Trophy Points:
    38
    Young Adult 2011 720p BluRay X264-DTRG

    [​IMG]

    Young Adult (2011)
    Genre: Comedy | Drama
    Directed By: Jason Reitman
    Cast: Charlize Theron, Patton Oswalt, Patrick Wilson
    MPAA Rate: R
    Storyline: Soon after her divorce, a fiction writer returns to her home in small-town Minnesota, looking to rekindle a romance with her ex-boyfriend, who is now happily married and has a newborn daughter.


    Code:
        IMDB Rate: 7.2
        IMDB: http://www.imdb.com/title/tt1625346/
    Complete name : Young.Adult.2011.720p.BluRay.X264-DTRG.mkv
    Format : Matroska
    Format version : Version 2
    File size : 1.56 GiB
    Duration : 1h 33mn
    Overall bit rate : 2 380 Kbps
    Movie name : Young.Adult.2011.720p.BluRay.X264-DTRG
    Encoded date : UTC 2012-03-02 01:05:01
    Writing application : mkvmerge v5.2.1 ('A Far Off Place') built on Jan 2 2012 23:21:10
    Writing library : libebml v1.2.3 + libmatroska v1.3.0

    Video
    ID : 1
    Format : AVC
    Format/Info : Advanced Video Codec
    Format profile : High@L3.1
    Format settings, CABAC : Yes
    Format settings, ReFrames : 4 frames
    Format settings, GOP : M=1, N=25
    Muxing mode : Header stripping
    Codec ID : V_MPEG4/ISO/AVC
    Duration : 1h 33mn
    Bit rate : 2 000 Kbps
    Width : 1 280 pixels
    Height : 720 pixels
    Display aspect ratio : 16:9
    Frame rate mode : Variable
    Frame rate : 23.976 fps
    Color space : YUV
    Chroma subsampling : 4:2:0
    Bit depth : 8 bits
    Scan type : Progressive
    Bits/(Pixel*Frame) : 0.091
    Stream size : 1.27 GiB (82%)
    Writing library : x264 core 112

    Audio
    ID : 2
    Format : AC-3
    Format/Info : Audio Coding 3
    Mode extension : CM (complete main)
    Muxing mode : Header stripping
    Codec ID : A_AC3
    Duration : 1h 33mn
    Bit rate mode : Constant
    Bit rate : 384 Kbps
    Channel(s) : 6 channels
    Channel positions : Front: L C R, Side: L R, LFE
    Sampling rate : 48.0 KHz
    Bit depth : 16 bits
    Compression mode : Lossy
    Stream size : 257 MiB (16%)
    Language : English


    DOWNLOAD
    Code:
    http://www.rarefile.net/j2j1hsee7ew3/ya.2011.720pb.x264-d.u23208.RMTeam.part1.rar
    http://www.rarefile.net/4kdyg0rtb0ys/ya.2011.720pb.x264-d.u23208.RMTeam.part2.rar
    http://www.rarefile.net/dbdyc7qu0tus/ya.2011.720pb.x264-d.u23208.RMTeam.part3.rar
    http://www.rarefile.net/hz4txd5ugqwu/ya.2011.720pb.x264-d.u23208.RMTeam.part4.rar

    [​IMG]

    [​IMG]
     

Share This Page