Young Adult 2011 720P BRRIP x264 AC3 - HOPE

Discussion in '2011 Movies' started by RMTeam, Mar 1, 2012.

  1. RMTeam

    RMTeam Active Member

    Joined:
    Feb 18, 2012
    Messages:
    4,485
    Likes Received:
    2
    Trophy Points:
    38
    Young Adult 2011 720P BRRIP x264 AC3 - HOPE

    [​IMG]

    Young Adult (2011)
    Genre: Comedy | Drama
    Directed By: Jason Reitman
    Cast: Charlize Theron, Patton Oswalt, Patrick Wilson
    MPAA Rate: R

    Code:
        IMDB Rate: 7.2
        IMDB: http://www.imdb.com/title/tt1625346/
    Storyline: Soon after her divorce, a fiction writer returns to her home in small-town Minnesota, looking to rekindle a romance with her ex-boyfriend, who is now happily married and has a newborn daughter.

    Information:
    Format : Matroska
    Format version : Version 2
    File size : 1.57 GiB
    Duration : 1h 33mn
    Overall bit rate : 2 399 Kbps
    Encoded date : UTC 2012-03-01 20:02:50
    Writing application : mkvmerge v5.3.0 ('I could have danced') built on Feb 9 2012 10:38:07
    Writing library : libebml v1.2.3 + libmatroska v1.3.0

    Video
    ID : 1
    Format : AVC
    Format/Info : Advanced Video Codec
    Format profile : High@L5.1
    Format settings, CABAC : Yes
    Format settings, ReFrames : 6 frames
    Codec ID : V_MPEG4/ISO/AVC
    Duration : 1h 33mn
    Bit rate : 1 903 Kbps
    Nominal bit rate : 1 999 Kbps
    Width : 1 280 pixels
    Height : 720 pixels
    Display aspect ratio : 16:9
    Frame rate : 23.976 fps
    Color space : YUV
    Chroma subsampling : 4:2:0
    Bit depth : 8 bits
    Scan type : Progressive
    Bits/(Pixel*Frame) : 0.086
    Stream size : 1.24 GiB (79%)
    Writing library : x264 core 120 r2164 da19765

    Audio
    ID : 2
    Format : AC-3
    Format/Info : Audio Coding 3
    Mode extension : CM (complete main)
    Codec ID : A_AC3
    Duration : 1h 33mn
    Bit rate mode : Constant
    Bit rate : 448 Kbps
    Channel(s) : 6 channels
    Channel positions : Front: L C R, Side: L R, LFE
    Sampling rate : 48.0 KHz
    Bit depth : 16 bits
    Compression mode : Lossy
    Stream size : 300 MiB (19%)

    DOWNLOAD
    Code:
    http://www.rarefile.net/8ciurf2ci14x/y.a.2011.720p.b.x264.a3.h.u23097.RMTeam.part1.rar
    http://www.rarefile.net/457rw48i98ak/y.a.2011.720p.b.x264.a3.h.u23097.RMTeam.part2.rar
    http://www.rarefile.net/r0qdyuf311z1/y.a.2011.720p.b.x264.a3.h.u23097.RMTeam.part3.rar
    http://www.rarefile.net/o1xrp2dz1hud/y.a.2011.720p.b.x264.a3.h.u23097.RMTeam.part4.rar
    [​IMG]

    [​IMG]

    [​IMG]
     

Share This Page