Young Adult 2011 BDRip Ac3 Xvid ANALOG Single 1 Link Full

Discussion in '2011 Movies' started by RMTeam, Mar 4, 2012.

  1. RMTeam

    RMTeam Active Member

    Joined:
    Feb 18, 2012
    Messages:
    4,485
    Likes Received:
    2
    Trophy Points:
    38
    Young Adult 2011 BDRip Ac3 Xvid ANALOG

    [​IMG]

    Young Adult (2011)
    Genre: Comedy | Drama
    Directed By: Jason Reitman
    Cast: Charlize Theron, Patton Oswalt, Patrick Wilson
    MPAA Rate: R
    Storyline: Soon after her divorce, a fiction writer returns to her home in small-town Minnesota, looking to rekindle a romance with her ex-boyfriend, who is now happily married and has a newborn daughter.

    Code:
        IMDB Rate: 7.2
        IMDB: http://www.imdb.com/title/tt1625346/
    Complete name : Young.Adult.2011.BDRip.Ac3.Xvid.ANALOG\Y.A.2011.BDR.ANALOG.avi
    Format : AVI
    Format/Info : Audio Video Interleave
    File size : 1.44 GiB
    Duration : 1h 33mn
    Overall bit rate : 2 205 Kbps
    Movie name : Y.A.2011.BDR.ANALOG
    Writing application : VirtualDub build 32842/release
    Copyright : ANALOG

    Video
    ID : 0
    Format : MPEG-4 Visual
    Format profile : Advanced Simple@L5
    Format settings, BVOP : 2
    Format settings, QPel : No
    Format settings, GMC : No warppoints
    Format settings, Matrix : Default (H.263)
    Muxing mode : Packed bitstream
    Codec ID : XVID
    Codec ID/Hint : XviD
    Duration : 1h 33mn
    Bit rate : 1 748 Kbps
    Width : 720 pixels
    Height : 400 pixels
    Display aspect ratio : 16:9
    Frame rate : 23.976 fps
    Color space : YUV
    Chroma subsampling : 4:2:0
    Bit depth : 8 bits
    Scan type : Progressive
    Compression mode : Lossy
    Bits/(Pixel*Frame) : 0.253
    Stream size : 1.14 GiB (79%)
    Writing library : XviD 64

    Audio
    ID : 1
    Format : AC-3
    Format/Info : Audio Coding 3
    Mode extension : CM (complete main)
    Codec ID : 2000
    Duration : 1h 33mn
    Bit rate mode : Constant
    Bit rate : 448 Kbps
    Channel(s) : 6 channels
    Channel positions : Front: L C R, Side: L R, LFE
    Sampling rate : 48.0 KHz
    Bit depth : 16 bits
    Compression mode : Lossy
    Stream size : 300 MiB (20%)
    Alignment : Aligned on interleaves
    Interleave, duration : 42 ms (1.00 video frame)
    Interleave, preload duration : 512 ms
    Sample : Yes


    DOWNLOAD
    Code:
    http://www.rarefile.net/64uplre3fhtp/ya.2011.ba.u23442.RMTeam.part1.rar
    http://www.rarefile.net/5o58ixtlfz28/ya.2011.ba.u23442.RMTeam.part2.rar
    http://www.rarefile.net/xn5xz8j2wbl2/ya.2011.ba.u23442.RMTeam.part3.rar
    [​IMG]

    [​IMG]

    [​IMG]
     

Share This Page