Young Adult (2011) BRRip XviD BBnRG Single 1 Link Full

Discussion in '2011 Movies' started by RMTeam, Mar 4, 2012.

  1. RMTeam

    RMTeam Active Member

    Joined:
    Feb 18, 2012
    Messages:
    4,485
    Likes Received:
    2
    Trophy Points:
    38
    Young Adult (2011) BRRip XviD BBnRG

    [​IMG]

    Young Adult (2011)
    Genre: Comedy | Drama
    Directed By: Jason Reitman
    Cast: Charlize Theron, Patton Oswalt, Patrick Wilson
    MPAA Rate: R
    Storyline: Soon after her divorce, a fiction writer returns to her home in small-town Minnesota, looking to rekindle a romance with her ex-boyfriend, who is now happily married and has a newborn daughter.

    Code:
        IMDB Rate: 7.2
        IMDB: http://www.imdb.com/title/tt1625346/
    Quote:General Information
    Complete name : Young Adult (2011) BRRip XviD BBnRG.avi
    Format : AVI
    Format/Info : Audio Video Interleave
    File size : 1.11 GiB
    Duration : 1h 33mn
    Overall bit rate : 1 690 Kbps

    Video
    ID : 0
    Format : MPEG-4 Visual
    Format profile : Advanced Simple@L5
    Format settings, BVOP : 2
    Format settings, QPel : No
    Format settings, GMC : No warppoints
    Format settings, Matrix : Default (H.263)
    Codec ID : XVID
    Codec ID/Hint : XviD
    Duration : 1h 33mn
    Bit rate : 1 299 Kbps
    Width : 712 pixels
    Height : 400 pixels
    Display aspect ratio : 16:9
    Frame rate : 23.976 fps
    Color space : YUV
    Chroma subsampling : 4:2:0
    Bit depth : 8 bits
    Scan type : Progressive
    Compression mode : Lossy
    Bits/(Pixel*Frame) : 0.190
    Stream size : 870 MiB (77%)
    Writing library : XviD 1.2.1 (UTC 2008-12-04)

    Audio
    ID : 1
    Format : AC-3
    Format/Info : Audio Coding 3
    Mode extension : CM (complete main)
    Codec ID : 2000
    Duration : 1h 33mn
    Bit rate mode : Constant
    Bit rate : 384 Kbps
    Channel(s) : 6 channels
    Channel positions : Front: L C R, Side: L R, LFE
    Sampling rate : 48.0 KHz
    Bit depth : 16 bits
    Compression mode : Lossy
    Stream size : 257 MiB (23%)
    Alignment : Aligned on interleaves
    Interleave, duration : 64 ms (1.53 video frames)
    Interleave, preload duration : 192 ms
    Title : Young Adult (2011) BBnRG

    Notes
    Encoder: FridayToker
    Source(s): SANTi (thanks)



    DOWNLOAD
    Code:
    http://www.rarefile.net/3u0uuhfy711g/y.a.2011.b.x.b.u23432.RMTeam.part1.rar
    http://www.rarefile.net/ovcsin6kusfn/y.a.2011.b.x.b.u23432.RMTeam.part2.rar
    http://www.rarefile.net/f98tf6djwq83/y.a.2011.b.x.b.u23432.RMTeam.part3.rar
    [​IMG]

    [​IMG]

    [​IMG]
     

Share This Page